  0
SECTION
  2
HEADER
  9
$ACADVER
  1
AC1015
  9
$ACADMAINTVER
 70
     6
  9
$DWGCODEPAGE
  3
ANSI_932
  9
$INSBASE
 10
0.0
 20
0.0
 30
0.0
  9
$EXTMIN
 10
46.09211125863839
 20
47.28002168889907
 30
-0.0000000100013723
  9
$EXTMAX
 10
6253.733698519383
 20
4407.734555458539
 30
0.0000000100013732
  9
$LIMMIN
 10
0.0
 20
0.0
  9
$LIMMAX
 10
420.0
 20
297.0
  9
$ORTHOMODE
 70
     0
  9
$REGENMODE
 70
     1
  9
$FILLMODE
 70
     1
  9
$QTEXTMODE
 70
     0
  9
$MIRRTEXT
 70
     1
  9
$LTSCALE
 40
1.0
  9
$ATTMODE
 70
     1
  9
$TEXTSIZE
 40
2.5
  9
$TRACEWID
 40
1.0
  9
$TEXTSTYLE
  7
Standard
  9
$CLAYER
  8
0
  9
$CELTYPE
  6
ByLayer
  9
$CECOLOR
 62
   256
  9
$CELTSCALE
 40
1.0
  9
$DISPSILH
 70
     0
  9
$DIMSCALE
 40
15.0
  9
$DIMASZ
 40
2.0
  9
$DIMEXO
 40
2.0
  9
$DIMDLI
 40
3.75
  9
$DIMRND
 40
0.0
  9
$DIMDLE
 40
0.0
  9
$DIMEXE
 40
0.5
  9
$DIMTP
 40
0.0
  9
$DIMTM
 40
0.0
  9
$DIMTXT
 40
2.5
  9
$DIMCEN
 40
2.0
  9
$DIMTSZ
 40
0.0
  9
$DIMTOL
 70
     0
  9
$DIMLIM
 70
     0
  9
$DIMTIH
 70
     0
  9
$DIMTOH
 70
     0
  9
$DIMSE1
 70
     0
  9
$DIMSE2
 70
     0
  9
$DIMTAD
 70
     1
  9
$DIMZIN
 70
     8
  9
$DIMBLK
  1

  9
$DIMASO
 70
     1
  9
$DIMSHO
 70
     1
  9
$DIMPOST
  1

  9
$DIMAPOST
  1

  9
$DIMALT
 70
     0
  9
$DIMALTD
 70
     3
  9
$DIMALTF
 40
0.03937007874016
  9
$DIMLFAC
 40
1.0
  9
$DIMTOFL
 70
     1
  9
$DIMTVP
 40
0.0
  9
$DIMTIX
 70
     1
  9
$DIMSOXD
 70
     1
  9
$DIMSAH
 70
     0
  9
$DIMBLK1
  1

  9
$DIMBLK2
  1

  9
$DIMSTYLE
  2
ISO-25 1／10
  9
$DIMCLRD
 70
     0
  9
$DIMCLRE
 70
     0
  9
$DIMCLRT
 70
     0
  9
$DIMTFAC
 40
1.0
  9
$DIMGAP
 40
0.75
  9
$DIMJUST
 70
     0
  9
$DIMSD1
 70
     0
  9
$DIMSD2
 70
     0
  9
$DIMTOLJ
 70
     0
  9
$DIMTZIN
 70
     8
  9
$DIMALTZ
 70
     0
  9
$DIMALTTZ
 70
     0
  9
$DIMUPT
 70
     0
  9
$DIMDEC
 70
     1
  9
$DIMTDEC
 70
     1
  9
$DIMALTU
 70
     2
  9
$DIMALTTD
 70
     3
  9
$DIMTXSTY
  7
Standard
  9
$DIMAUNIT
 70
     0
  9
$DIMADEC
 70
     0
  9
$DIMALTRND
 40
0.0
  9
$DIMAZIN
 70
     0
  9
$DIMDSEP
 70
    46
  9
$DIMATFIT
 70
     3
  9
$DIMFRAC
 70
     0
  9
$DIMLDRBLK
  1

  9
$DIMLUNIT
 70
     2
  9
$DIMLWD
 70
    -2
  9
$DIMLWE
 70
    -2
  9
$DIMTMOVE
 70
     0
  9
$LUNITS
 70
     2
  9
$LUPREC
 70
     4
  9
$SKETCHINC
 40
1.0
  9
$FILLETRAD
 40
10.0
  9
$AUNITS
 70
     0
  9
$AUPREC
 70
     0
  9
$MENU
  1
.
  9
$ELEVATION
 40
0.0
  9
$PELEVATION
 40
0.0
  9
$THICKNESS
 40
0.0
  9
$LIMCHECK
 70
     0
  9
$CHAMFERA
 40
10.0
  9
$CHAMFERB
 40
10.0
  9
$CHAMFERC
 40
20.0
  9
$CHAMFERD
 40
0.0
  9
$SKPOLY
 70
     0
  9
$TDCREATE
 40
2460397.675036701
  9
$TDUCREATE
 40
2460397.300036701
  9
$TDUPDATE
 40
2460410.436086204
  9
$TDUUPDATE
 40
2460410.061086204
  9
$TDINDWG
 40
0.0903029167
  9
$TDUSRTIMER
 40
0.0903029167
  9
$USRTIMER
 70
     1
  9
$ANGBASE
 50
0.0
  9
$ANGDIR
 70
     0
  9
$PDMODE
 70
     0
  9
$PDSIZE
 40
0.0
  9
$PLINEWID
 40
0.0
  9
$SPLFRAME
 70
     0
  9
$SPLINETYPE
 70
     6
  9
$SPLINESEGS
 70
     8
  9
$HANDSEED
  5
24DC
  9
$SURFTAB1
 70
     6
  9
$SURFTAB2
 70
     6
  9
$SURFTYPE
 70
     6
  9
$SURFU
 70
     6
  9
$SURFV
 70
     6
  9
$UCSBASE
  2

  9
$UCSNAME
  2

  9
$UCSORG
 10
0.0
 20
0.0
 30
0.0
  9
$UCSXDIR
 10
1.0
 20
0.0
 30
0.0
  9
$UCSYDIR
 10
0.0
 20
1.0
 30
0.0
  9
$UCSORTHOREF
  2

  9
$UCSORTHOVIEW
 70
     0
  9
$UCSORGTOP
 10
0.0
 20
0.0
 30
0.0
  9
$UCSORGBOTTOM
 10
0.0
 20
0.0
 30
0.0
  9
$UCSORGLEFT
 10
0.0
 20
0.0
 30
0.0
  9
$UCSORGRIGHT
 10
0.0
 20
0.0
 30
0.0
  9
$UCSORGFRONT
 10
0.0
 20
0.0
 30
0.0
  9
$UCSORGBACK
 10
0.0
 20
0.0
 30
0.0
  9
$PUCSBASE
  2

  9
$PUCSNAME
  2

  9
$PUCSORG
 10
0.0
 20
0.0
 30
0.0
  9
$PUCSXDIR
 10
1.0
 20
0.0
 30
0.0
  9
$PUCSYDIR
 10
0.0
 20
1.0
 30
0.0
  9
$PUCSORTHOREF
  2

  9
$PUCSORTHOVIEW
 70
     0
  9
$PUCSORGTOP
 10
0.0
 20
0.0
 30
0.0
  9
$PUCSORGBOTTOM
 10
0.0
 20
0.0
 30
0.0
  9
$PUCSORGLEFT
 10
0.0
 20
0.0
 30
0.0
  9
$PUCSORGRIGHT
 10
0.0
 20
0.0
 30
0.0
  9
$PUCSORGFRONT
 10
0.0
 20
0.0
 30
0.0
  9
$PUCSORGBACK
 10
0.0
 20
0.0
 30
0.0
  9
$USERI1
 70
     0
  9
$USERI2
 70
     0
  9
$USERI3
 70
     0
  9
$USERI4
 70
     0
  9
$USERI5
 70
     0
  9
$USERR1
 40
0.0
  9
$USERR2
 40
0.0
  9
$USERR3
 40
0.0
  9
$USERR4
 40
0.0
  9
$USERR5
 40
0.0
  9
$WORLDVIEW
 70
     1
  9
$SHADEDGE
 70
     3
  9
$SHADEDIF
 70
    70
  9
$TILEMODE
 70
     1
  9
$MAXACTVP
 70
    64
  9
$PINSBASE
 10
0.0
 20
0.0
 30
0.0
  9
$PLIMCHECK
 70
     0
  9
$PEXTMIN
 10
1.000000000000000E+20
 20
1.000000000000000E+20
 30
1.000000000000000E+20
  9
$PEXTMAX
 10
-1.000000000000000E+20
 20
-1.000000000000000E+20
 30
-1.000000000000000E+20
  9
$PLIMMIN
 10
0.0
 20
0.0
  9
$PLIMMAX
 10
420.0
 20
297.0
  9
$UNITMODE
 70
     0
  9
$VISRETAIN
 70
     1
  9
$PLINEGEN
 70
     0
  9
$PSLTSCALE
 70
     1
  9
$TREEDEPTH
 70
  3020
  9
$CMLSTYLE
  2
Standard
  9
$CMLJUST
 70
     0
  9
$CMLSCALE
 40
20.0
  9
$PROXYGRAPHICS
 70
     1
  9
$MEASUREMENT
 70
     1
  9
$CELWEIGHT
370
    13
  9
$ENDCAPS
280
     0
  9
$JOINSTYLE
280
     0
  9
$LWDISPLAY
290
     0
  9
$INSUNITS
 70
     4
  9
$HYPERLINKBASE
  1

  9
$STYLESHEET
  1
monochrome.ctb
  9
$XEDIT
290
     1
  9
$CEPSNTYPE
380
     0
  9
$PSTYLEMODE
290
     1
  9
$FINGERPRINTGUID
  2
{FDEAD578-A652-11D2-9A35-0060089B3A3F}
  9
$VERSIONGUID
  2
{31FBE215-66D7-4109-A3D7-E0F4586B5240}
  9
$EXTNAMES
290
     1
  9
$PSVPSCALE
 40
0.0
  9
$OLESTARTUP
290
     0
  0
ENDSEC
  0
SECTION
  2
CLASSES
  0
CLASS
  1
ACDBDICTIONARYWDFLT
  2
AcDbDictionaryWithDefault
  3
AutoCAD 2000
 90
        0
280
     0
281
     0
  0
CLASS
  1
ACDBPLACEHOLDER
  2
AcDbPlaceHolder
  3
AutoCAD 2000
 90
        0
280
     0
281
     0
  0
CLASS
  1
LAYOUT
  2
AcDbLayout
  3
AutoCAD 2000
 90
        0
280
     0
281
     0
  0
ENDSEC
  0
SECTION
  2
TABLES
  0
TABLE
  2
VPORT
  5
8
330
0
100
AcDbSymbolTable
 70
     2
  0
VPORT
  5
24DB
330
8
100
AcDbSymbolTableRecord
100
AcDbViewportTableRecord
  2
*Active
 70
     0
 10
0.0
 20
0.0
 11
1.0
 21
1.0
 12
3149.91290488901
 22
2227.507288573719
 13
0.0
 23
0.0
 14
10.0
 24
10.0
 15
10.0
 25
10.0
 16
0.0
 26
0.0
 36
1.0
 17
0.0
 27
0.0
 37
0.0
 40
4391.125960736366
 41
2.165492957746478
 42
50.0
 43
0.0
 44
0.0
 50
0.0
 51
0.0
 71
     0
 72
   100
 73
     1
 74
     3
 75
     0
 76
     0
 77
     0
 78
     0
281
     0
 65
     1
110
0.0
120
0.0
130
0.0
111
1.0
121
0.0
131
0.0
112
0.0
122
1.0
132
0.0
 79
     0
146
0.0
  0
ENDTAB
  0
TABLE
  2
LTYPE
  5
5
330
0
100
AcDbSymbolTable
 70
     3
  0
LTYPE
  5
14
330
5
100
AcDbSymbolTableRecord
100
AcDbLinetypeTableRecord
  2
ByBlock
 70
     0
  3

 72
    65
 73
     0
 40
0.0
  0
LTYPE
  5
15
330
5
100
AcDbSymbolTableRecord
100
AcDbLinetypeTableRecord
  2
ByLayer
 70
     0
  3

 72
    65
 73
     0
 40
0.0
  0
LTYPE
  5
16
330
5
100
AcDbSymbolTableRecord
100
AcDbLinetypeTableRecord
  2
Continuous
 70
     0
  3
Solid line
 72
    65
 73
     0
 40
0.0
  0
LTYPE
  5
60C
330
5
100
AcDbSymbolTableRecord
100
AcDbLinetypeTableRecord
  2
ACAD_ISO07W100
 70
     0
  3
ISO dot . . . . . . . . . . . . . . . . . . . .
 72
    65
 73
     2
 40
3.0
 49
0.0
 74
     0
 49
-3.0
 74
     0
  0
LTYPE
  5
60D
330
5
100
AcDbSymbolTableRecord
100
AcDbLinetypeTableRecord
  2
ACAD_ISO03W100
 70
     0
  3
ISO dash space __    __    __    __    __    __
 72
    65
 73
     2
 40
30.0
 49
12.0
 74
     0
 49
-18.0
 74
     0
  0
ENDTAB
  0
TABLE
  2
LAYER
  5
2
102
{ACAD_XDICTIONARY
360
44
102
}
330
0
100
AcDbSymbolTable
 70
     5
  0
LAYER
  5
10
330
2
100
AcDbSymbolTableRecord
100
AcDbLayerTableRecord
  2
0
 70
     0
 62
     7
  6
Continuous
370
    -3
390
F
  0
LAYER
  5
27C
330
2
100
AcDbSymbolTableRecord
100
AcDbLayerTableRecord
  2
Defpoints
 70
     0
 62
     2
  6
Continuous
290
     0
370
    -3
390
F
  0
LAYER
  5
298
102
{ACAD_XDICTIONARY
360
299
102
}
330
2
100
AcDbSymbolTableRecord
100
AcDbLayerTableRecord
  2
枠
 70
     0
 62
     5
  6
Continuous
370
    35
390
F
  0
LAYER
  5
29B
330
2
100
AcDbSymbolTableRecord
100
AcDbLayerTableRecord
  2
文字
 70
     0
 62
    30
  6
Continuous
370
    -3
390
F
  0
LAYER
  5
60E
330
2
100
AcDbSymbolTableRecord
100
AcDbLayerTableRecord
  2
寸法
 70
     0
 62
     6
  6
Continuous
370
    -3
390
F
  0
ENDTAB
  0
TABLE
  2
STYLE
  5
3
330
0
100
AcDbSymbolTable
 70
     1
  0
STYLE
  5
11
330
3
100
AcDbSymbolTableRecord
100
AcDbTextStyleTableRecord
  2
Standard
 70
     0
 40
0.0
 41
1.0
 50
0.0
 71
     0
 42
2.5
  3
MS PGothic.ttf
  4

1001
ACAD
1000
MS PGothic
1071
    32818
  0
ENDTAB
  0
TABLE
  2
VIEW
  5
6
330
0
100
AcDbSymbolTable
 70
     0
  0
ENDTAB
  0
TABLE
  2
UCS
  5
7
330
0
100
AcDbSymbolTable
 70
     0
  0
ENDTAB
  0
TABLE
  2
APPID
  5
9
330
0
100
AcDbSymbolTable
 70
     2
  0
APPID
  5
12
330
9
100
AcDbSymbolTableRecord
100
AcDbRegAppTableRecord
  2
ACAD
 70
     0
  0
APPID
  5
29E
330
9
100
AcDbSymbolTableRecord
100
AcDbRegAppTableRecord
  2
ACAD_PSEXT
 70
     0
  0
ENDTAB
  0
TABLE
  2
DIMSTYLE
  5
A
330
0
100
AcDbSymbolTable
 70
     2
100
AcDbDimStyleTable
 71
     1
340
27F
  0
DIMSTYLE
105
27E
330
A
100
AcDbSymbolTableRecord
100
AcDbDimStyleTableRecord
  2
STANDARD
 70
     0
340
11
  0
DIMSTYLE
105
27F
102
{ACAD_REACTORS
330
1E71
330
1E73
330
1E72
330
1FDE
330
1FDD
330
1FE1
330
1FDB
330
1FDA
330
1FDC
330
1FDF
330
1FE0
330
20D4
330
20D3
330
2141
330
2243
330
225C
102
}
330
A
100
AcDbSymbolTableRecord
100
AcDbDimStyleTableRecord
  2
ISO-25 1／10
 70
     0
 40
15.0
 41
2.0
 42
2.0
 43
3.75
 44
0.5
 73
     0
 74
     0
 77
     1
 78
     8
140
2.5
141
2.0
143
0.03937007874016
147
0.75
171
     3
172
     1
174
     1
175
     1
271
     1
272
     1
274
     3
283
     0
284
     8
340
11
  0
ENDTAB
  0
TABLE
  2
BLOCK_RECORD
  5
1
330
0
100
AcDbSymbolTable
 70
    17
  0
BLOCK_RECORD
  5
1F
330
1
100
AcDbSymbolTableRecord
100
AcDbBlockTableRecord
  2
*Model_Space
340
22
  0
BLOCK_RECORD
  5
1B
330
1
100
AcDbSymbolTableRecord
100
AcDbBlockTableRecord
  2
*Paper_Space
340
1E
  0
BLOCK_RECORD
  5
23
330
1
100
AcDbSymbolTableRecord
100
AcDbBlockTableRecord
  2
*Paper_Space0
340
26
  0
BLOCK_RECORD
  5
1E74
330
1
100
AcDbSymbolTableRecord
100
AcDbBlockTableRecord
  2
*D1
340
0
  0
BLOCK_RECORD
  5
1E80
330
1
100
AcDbSymbolTableRecord
100
AcDbBlockTableRecord
  2
*D2
340
0
  0
BLOCK_RECORD
  5
1E98
330
1
100
AcDbSymbolTableRecord
100
AcDbBlockTableRecord
  2
*D3
340
0
  0
BLOCK_RECORD
  5
1FE2
330
1
100
AcDbSymbolTableRecord
100
AcDbBlockTableRecord
  2
*D4
340
0
  0
BLOCK_RECORD
  5
1FEE
330
1
100
AcDbSymbolTableRecord
100
AcDbBlockTableRecord
  2
*D5
340
0
  0
BLOCK_RECORD
  5
1FFA
330
1
100
AcDbSymbolTableRecord
100
AcDbBlockTableRecord
  2
*D6
340
0
  0
BLOCK_RECORD
  5
2004
330
1
100
AcDbSymbolTableRecord
100
AcDbBlockTableRecord
  2
*D7
340
0
  0
BLOCK_RECORD
  5
2010
330
1
100
AcDbSymbolTableRecord
100
AcDbBlockTableRecord
  2
*D8
340
0
  0
BLOCK_RECORD
  5
201C
330
1
100
AcDbSymbolTableRecord
100
AcDbBlockTableRecord
  2
*D9
340
0
  0
BLOCK_RECORD
  5
2026
330
1
100
AcDbSymbolTableRecord
100
AcDbBlockTableRecord
  2
*D10
340
0
  0
BLOCK_RECORD
  5
2030
330
1
100
AcDbSymbolTableRecord
100
AcDbBlockTableRecord
  2
*D11
340
0
  0
BLOCK_RECORD
  5
20D5
330
1
100
AcDbSymbolTableRecord
100
AcDbBlockTableRecord
  2
*D12
340
0
  0
BLOCK_RECORD
  5
20E1
330
1
100
AcDbSymbolTableRecord
100
AcDbBlockTableRecord
  2
*D13
340
0
  0
BLOCK_RECORD
  5
2142
330
1
100
AcDbSymbolTableRecord
100
AcDbBlockTableRecord
  2
*D14
340
0
  0
BLOCK_RECORD
  5
2244
330
1
100
AcDbSymbolTableRecord
100
AcDbBlockTableRecord
  2
*D15
340
0
  0
BLOCK_RECORD
  5
225D
330
1
100
AcDbSymbolTableRecord
100
AcDbBlockTableRecord
  2
*D16
340
0
  0
ENDTAB
  0
ENDSEC
  0
SECTION
  2
BLOCKS
  0
BLOCK
  5
20
330
1F
100
AcDbEntity
  8
0
100
AcDbBlockBegin
  2
*Model_Space
 70
     0
 10
0.0
 20
0.0
 30
0.0
  3
*Model_Space
  1

  0
ENDBLK
  5
21
330
1F
100
AcDbEntity
  8
0
100
AcDbBlockEnd
  0
BLOCK
  5
1C
330
1B
100
AcDbEntity
 67
     1
  8
0
100
AcDbBlockBegin
  2
*Paper_Space
 70
     0
 10
0.0
 20
0.0
 30
0.0
  3
*Paper_Space
  1

  0
ENDBLK
  5
1D
330
1B
100
AcDbEntity
 67
     1
  8
0
100
AcDbBlockEnd
  0
BLOCK
  5
24
330
23
100
AcDbEntity
  8
0
100
AcDbBlockBegin
  2
*Paper_Space0
 70
     0
 10
0.0
 20
0.0
 30
0.0
  3
*Paper_Space0
  1

  0
ENDBLK
  5
25
330
23
100
AcDbEntity
  8
0
100
AcDbBlockEnd
  0
BLOCK
  5
1E7E
330
1E74
100
AcDbEntity
  8
0
100
AcDbBlockBegin
  2
*D1
 70
     1
 10
0.0
 20
0.0
 30
0.0
  3
*D1
  1

  0
LINE
  5
249C
330
1E74
100
AcDbEntity
  8
寸法
 62
     0
370
    -2
100
AcDbLine
 10
750.0
 20
3770.499999999854
 30
0.0
 11
750.0
 21
3923.0
 31
0.0
  0
LINE
  5
249D
330
1E74
100
AcDbEntity
  8
寸法
 62
     0
370
    -2
100
AcDbLine
 10
2450.0
 20
3762.499999999846
 30
0.0
 11
2450.0
 21
3923.0
 31
0.0
  0
LINE
  5
249E
330
1E74
100
AcDbEntity
  8
寸法
 62
     0
370
    -2
100
AcDbLine
 10
780.0
 20
3915.499999999999
 30
0.0
 11
2420.0
 21
3915.499999999999
 31
0.0
  0
SOLID
  5
249F
330
1E74
100
AcDbEntity
  8
寸法
 62
     0
100
AcDbTrace
 10
780.0
 20
3920.5
 30
0.0
 11
780.0
 21
3910.499999999999
 31
0.0
 12
750.0
 22
3915.499999999999
 32
0.0
 13
750.0
 23
3915.499999999999
 33
0.0
  0
SOLID
  5
24A0
330
1E74
100
AcDbEntity
  8
寸法
 62
     0
100
AcDbTrace
 10
2420.0
 20
3920.5
 30
0.0
 11
2420.0
 21
3910.499999999999
 31
0.0
 12
2450.0
 22
3915.499999999999
 32
0.0
 13
2450.0
 23
3915.499999999999
 33
0.0
  0
MTEXT
  5
24A1
330
1E74
100
AcDbEntity
  8
寸法
 62
     0
370
    13
100
AcDbMText
 10
1600.0
 20
3947.098011363635
 30
0.0
 40
37.5
 41
0.0
 71
     5
 72
     1
  1
レール
 73
     1
 44
1.0
  0
POINT
  5
24A2
330
1E74
100
AcDbEntity
  8
Defpoints
 62
     0
100
AcDbPoint
 10
750.0
 20
3740.499999999855
 30
0.0
  0
POINT
  5
24A3
330
1E74
100
AcDbEntity
  8
Defpoints
 62
     0
100
AcDbPoint
 10
2450.0
 20
3732.499999999845
 30
0.0
  0
POINT
  5
24A4
330
1E74
100
AcDbEntity
  8
Defpoints
 62
     0
100
AcDbPoint
 10
2450.0
 20
3915.499999999999
 30
0.0
  0
ENDBLK
  5
1E7F
330
1E74
100
AcDbEntity
  8
0
100
AcDbBlockEnd
  0
BLOCK
  5
1E8A
330
1E80
100
AcDbEntity
  8
0
100
AcDbBlockBegin
  2
*D2
 70
     1
 10
0.0
 20
0.0
 30
0.0
  3
*D2
  1

  0
LINE
  5
2493
330
1E80
100
AcDbEntity
  8
寸法
 62
     0
370
    -2
100
AcDbLine
 10
750.0
 20
3598.499999999845
 30
0.0
 11
750.0
 21
3545.999999999845
 31
0.0
  0
LINE
  5
2494
330
1E80
100
AcDbEntity
  8
寸法
 62
     0
370
    -2
100
AcDbLine
 10
1604.000000000001
 20
3710.499999999854
 30
0.0
 11
1604.000000000001
 21
3545.999999999845
 31
0.0
  0
LINE
  5
2495
330
1E80
100
AcDbEntity
  8
寸法
 62
     0
370
    -2
100
AcDbLine
 10
780.0
 20
3553.499999999845
 30
0.0
 11
1574.000000000001
 21
3553.499999999845
 31
0.0
  0
SOLID
  5
2496
330
1E80
100
AcDbEntity
  8
寸法
 62
     0
100
AcDbTrace
 10
780.0
 20
3558.499999999845
 30
0.0
 11
780.0
 21
3548.499999999846
 31
0.0
 12
750.0
 22
3553.499999999845
 32
0.0
 13
750.0
 23
3553.499999999845
 33
0.0
  0
SOLID
  5
2497
330
1E80
100
AcDbEntity
  8
寸法
 62
     0
100
AcDbTrace
 10
1574.000000000001
 20
3558.499999999845
 30
0.0
 11
1574.000000000001
 21
3548.499999999846
 31
0.0
 12
1604.000000000001
 22
3553.499999999845
 32
0.0
 13
1604.000000000001
 23
3553.499999999845
 33
0.0
  0
MTEXT
  5
2498
330
1E80
100
AcDbEntity
  8
寸法
 62
     0
370
    13
100
AcDbMText
 10
1177.0
 20
3588.507102272573
 30
0.0
 40
37.5
 41
0.0
 71
     5
 72
     1
  1
開口 W
 73
     1
 44
1.0
  0
POINT
  5
2499
330
1E80
100
AcDbEntity
  8
Defpoints
 62
     0
100
AcDbPoint
 10
750.0
 20
3628.499999999846
 30
0.0
  0
POINT
  5
249A
330
1E80
100
AcDbEntity
  8
Defpoints
 62
     0
100
AcDbPoint
 10
1604.000000000001
 20
3740.499999999855
 30
0.0
  0
POINT
  5
249B
330
1E80
100
AcDbEntity
  8
Defpoints
 62
     0
100
AcDbPoint
 10
1604.000000000001
 20
3553.499999999845
 30
0.0
  0
ENDBLK
  5
1E8B
330
1E80
100
AcDbEntity
  8
0
100
AcDbBlockEnd
  0
BLOCK
  5
1EA2
330
1E98
100
AcDbEntity
  8
0
100
AcDbBlockBegin
  2
*D3
 70
     1
 10
0.0
 20
0.0
 30
0.0
  3
*D3
  1

  0
LINE
  5
24C8
330
1E98
100
AcDbEntity
  8
寸法
 62
     0
370
    -2
100
AcDbLine
 10
1503.999999999984
 20
3741.999999999863
 30
0.0
 11
1503.999999999984
 21
3847.999999999999
 31
0.0
  0
LINE
  5
24C9
330
1E98
100
AcDbEntity
  8
寸法
 62
     0
370
    -2
100
AcDbLine
 10
1604.000000000001
 20
3791.500000000001
 30
0.0
 11
1604.000000000001
 21
3847.999999999999
 31
0.0
  0
LINE
  5
24CA
330
1E98
100
AcDbEntity
  8
寸法
 62
     0
370
    -2
100
AcDbLine
 10
1533.999999999983
 20
3840.499999999999
 30
0.0
 11
1574.000000000001
 21
3840.499999999999
 31
0.0
  0
MTEXT
  5
24CB
330
1E98
100
AcDbEntity
  8
寸法
 62
     0
370
    13
100
AcDbMText
 10
1500.000000000001
 20
3875.933238636363
 30
0.0
 40
37.5
 41
0.0
 71
     5
 72
     1
  1
引残し=100
 73
     1
 44
1.0
  0
SOLID
  5
24CC
330
1E98
100
AcDbEntity
  8
寸法
 62
     0
100
AcDbTrace
 10
1533.999999999983
 20
3845.499999999999
 30
0.0
 11
1533.999999999983
 21
3835.499999999999
 31
0.0
 12
1503.999999999984
 22
3840.499999999999
 32
0.0
 13
1503.999999999984
 23
3840.499999999999
 33
0.0
  0
SOLID
  5
24CD
330
1E98
100
AcDbEntity
  8
寸法
 62
     0
100
AcDbTrace
 10
1574.000000000001
 20
3845.499999999999
 30
0.0
 11
1574.000000000001
 21
3835.499999999999
 31
0.0
 12
1604.000000000001
 22
3840.499999999999
 32
0.0
 13
1604.000000000001
 23
3840.499999999999
 33
0.0
  0
POINT
  5
24CE
330
1E98
100
AcDbEntity
  8
Defpoints
 62
     0
100
AcDbPoint
 10
1503.999999999984
 20
3711.999999999863
 30
0.0
  0
POINT
  5
24CF
330
1E98
100
AcDbEntity
  8
Defpoints
 62
     0
100
AcDbPoint
 10
1604.000000000001
 20
3761.500000000001
 30
0.0
  0
POINT
  5
24D0
330
1E98
100
AcDbEntity
  8
Defpoints
 62
     0
100
AcDbPoint
 10
1604.000000000001
 20
3840.499999999999
 30
0.0
  0
ENDBLK
  5
1EA3
330
1E98
100
AcDbEntity
  8
0
100
AcDbBlockEnd
  0
BLOCK
  5
1FEC
330
1FE2
100
AcDbEntity
  8
0
100
AcDbBlockBegin
  2
*D4
 70
     1
 10
0.0
 20
0.0
 30
0.0
  3
*D4
  1

  0
LINE
  5
2458
330
1FE2
100
AcDbEntity
  8
寸法
 62
     0
370
    -2
100
AcDbLine
 10
720.0
 20
705.0
 30
0.0
 11
592.4999999999994
 21
705.0
 31
0.0
  0
LINE
  5
2459
330
1FE2
100
AcDbEntity
  8
寸法
 62
     0
370
    -2
100
AcDbLine
 10
720.0
 20
2919.0
 30
0.0
 11
592.4999999999999
 21
2919.0
 31
0.0
  0
LINE
  5
245A
330
1FE2
100
AcDbEntity
  8
寸法
 62
     0
370
    -2
100
AcDbLine
 10
599.9999999999994
 20
735.0
 30
0.0
 11
600.0
 21
2889.0
 31
0.0
  0
SOLID
  5
245B
330
1FE2
100
AcDbEntity
  8
寸法
 62
     0
100
AcDbTrace
 10
594.9999999999994
 20
735.0
 30
0.0
 11
604.9999999999994
 21
735.0
 31
0.0
 12
599.9999999999994
 22
705.0
 32
0.0
 13
599.9999999999994
 23
705.0
 33
0.0
  0
SOLID
  5
245C
330
1FE2
100
AcDbEntity
  8
寸法
 62
     0
100
AcDbTrace
 10
595.0
 20
2889.0
 30
0.0
 11
605.0
 21
2889.0
 31
0.0
 12
600.0
 22
2919.0
 32
0.0
 13
600.0
 23
2919.0
 33
0.0
  0
MTEXT
  5
245D
330
1FE2
100
AcDbEntity
  8
寸法
 62
     0
370
    13
100
AcDbMText
 10
564.1406249999994
 20
1812.0
 30
0.0
 40
37.5
 41
0.0
 71
     5
 72
     1
  1
有効開口 H=（開口Ｈ-43）
 11
0.0000000000000001
 21
1.0
 31
0.0
 73
     1
 44
1.0
  0
POINT
  5
245E
330
1FE2
100
AcDbEntity
  8
Defpoints
 62
     0
100
AcDbPoint
 10
750.0
 20
705.0
 30
0.0
  0
POINT
  5
245F
330
1FE2
100
AcDbEntity
  8
Defpoints
 62
     0
100
AcDbPoint
 10
750.0
 20
2919.0
 30
0.0
  0
POINT
  5
2460
330
1FE2
100
AcDbEntity
  8
Defpoints
 62
     0
100
AcDbPoint
 10
600.0
 20
2919.0
 30
0.0
  0
ENDBLK
  5
1FED
330
1FE2
100
AcDbEntity
  8
0
100
AcDbBlockEnd
  0
BLOCK
  5
1FF8
330
1FEE
100
AcDbEntity
  8
0
100
AcDbBlockBegin
  2
*D5
 70
     1
 10
0.0
 20
0.0
 30
0.0
  3
*D5
  1

  0
LINE
  5
2461
330
1FEE
100
AcDbEntity
  8
寸法
 62
     0
370
    -2
100
AcDbLine
 10
726.0
 20
715.0
 30
0.0
 11
667.4999999999994
 21
715.0
 31
0.0
  0
LINE
  5
2462
330
1FEE
100
AcDbEntity
  8
寸法
 62
     0
370
    -2
100
AcDbLine
 10
726.0
 20
2914.999999999999
 30
0.0
 11
667.4999999999999
 21
2914.999999999999
 31
0.0
  0
LINE
  5
2463
330
1FEE
100
AcDbEntity
  8
寸法
 62
     0
370
    -2
100
AcDbLine
 10
674.9999999999994
 20
745.0
 30
0.0
 11
675.0
 21
2884.999999999999
 31
0.0
  0
SOLID
  5
2464
330
1FEE
100
AcDbEntity
  8
寸法
 62
     0
100
AcDbTrace
 10
669.9999999999994
 20
745.0
 30
0.0
 11
679.9999999999994
 21
745.0
 31
0.0
 12
674.9999999999994
 22
715.0
 32
0.0
 13
674.9999999999994
 23
715.0
 33
0.0
  0
SOLID
  5
2465
330
1FEE
100
AcDbEntity
  8
寸法
 62
     0
100
AcDbTrace
 10
670.0
 20
2884.999999999999
 30
0.0
 11
680.0
 21
2884.999999999999
 31
0.0
 12
675.0
 22
2914.999999999999
 32
0.0
 13
675.0
 23
2914.999999999999
 33
0.0
  0
MTEXT
  5
2466
330
1FEE
100
AcDbEntity
  8
寸法
 62
     0
370
    13
100
AcDbMText
 10
639.886363636363
 20
1814.999999999999
 30
0.0
 40
37.5
 41
0.0
 71
     5
 72
     1
  1
引戸 GH=（開口Ｈ-57）
 11
0.0000000000000001
 21
1.0
 31
0.0
 73
     1
 44
1.0
  0
POINT
  5
2467
330
1FEE
100
AcDbEntity
  8
Defpoints
 62
     0
100
AcDbPoint
 10
756.0
 20
715.0
 30
0.0
  0
POINT
  5
2468
330
1FEE
100
AcDbEntity
  8
Defpoints
 62
     0
100
AcDbPoint
 10
756.0
 20
2914.999999999999
 30
0.0
  0
POINT
  5
2469
330
1FEE
100
AcDbEntity
  8
Defpoints
 62
     0
100
AcDbPoint
 10
675.0
 20
2914.999999999999
 30
0.0
  0
ENDBLK
  5
1FF9
330
1FEE
100
AcDbEntity
  8
0
100
AcDbBlockEnd
  0
BLOCK
  5
2002
330
1FFA
100
AcDbEntity
  8
0
100
AcDbBlockBegin
  2
*D6
 70
     1
 10
0.0
 20
0.0
 30
0.0
  3
*D6
  1

  0
LINE
  5
2473
330
1FFA
100
AcDbEntity
  8
寸法
 62
     0
370
    -2
100
AcDbLine
 10
726.0
 20
715.0
 30
0.0
 11
667.4999999999999
 21
715.0
 31
0.0
  0
LINE
  5
2474
330
1FFA
100
AcDbEntity
  8
寸法
 62
     0
370
    -2
100
AcDbLine
 10
720.0
 20
705.0
 30
0.0
 11
667.4999999999999
 21
705.0
 31
0.0
  0
MTEXT
  5
2475
330
1FFA
100
AcDbEntity
  8
寸法
 62
     0
370
    13
100
AcDbMText
 10
645.0
 20
745.0
 30
0.0
 40
37.5
 41
0.0
 71
     5
 72
     1
  1
10
 11
0.0000000000000001
 21
1.0
 31
0.0
 73
     1
 44
1.0
  0
LINE
  5
2476
330
1FFA
100
AcDbEntity
  8
寸法
 62
     0
370
    -2
100
AcDbLine
 10
675.0
 20
715.0
 30
0.0
 11
675.0
 21
705.0
 31
0.0
  0
POINT
  5
2477
330
1FFA
100
AcDbEntity
  8
Defpoints
 62
     0
100
AcDbPoint
 10
756.0
 20
715.0
 30
0.0
  0
POINT
  5
2478
330
1FFA
100
AcDbEntity
  8
Defpoints
 62
     0
100
AcDbPoint
 10
750.0
 20
705.0
 30
0.0
  0
POINT
  5
2479
330
1FFA
100
AcDbEntity
  8
Defpoints
 62
     0
100
AcDbPoint
 10
675.0
 20
705.0
 30
0.0
  0
ENDBLK
  5
2003
330
1FFA
100
AcDbEntity
  8
0
100
AcDbBlockEnd
  0
BLOCK
  5
200E
330
2004
100
AcDbEntity
  8
0
100
AcDbBlockBegin
  2
*D7
 70
     1
 10
0.0
 20
0.0
 30
0.0
  3
*D7
  1

  0
LINE
  5
2481
330
2004
100
AcDbEntity
  8
寸法
 62
     0
370
    -2
100
AcDbLine
 10
750.0
 20
2992.0
 30
0.0
 11
750.0
 21
3116.499999999998
 31
0.0
  0
LINE
  5
2482
330
2004
100
AcDbEntity
  8
寸法
 62
     0
370
    -2
100
AcDbLine
 10
2450.0
 20
2992.0
 30
0.0
 11
2450.0
 21
3116.499999999998
 31
0.0
  0
LINE
  5
2483
330
2004
100
AcDbEntity
  8
寸法
 62
     0
370
    -2
100
AcDbLine
 10
780.0
 20
3108.999999999998
 30
0.0
 11
2420.0
 21
3108.999999999998
 31
0.0
  0
SOLID
  5
2484
330
2004
100
AcDbEntity
  8
寸法
 62
     0
100
AcDbTrace
 10
780.0
 20
3113.999999999998
 30
0.0
 11
780.0
 21
3103.999999999998
 31
0.0
 12
750.0
 22
3108.999999999998
 32
0.0
 13
750.0
 23
3108.999999999998
 33
0.0
  0
SOLID
  5
2485
330
2004
100
AcDbEntity
  8
寸法
 62
     0
100
AcDbTrace
 10
2420.0
 20
3113.999999999998
 30
0.0
 11
2420.0
 21
3103.999999999998
 31
0.0
 12
2450.0
 22
3108.999999999998
 32
0.0
 13
2450.0
 23
3108.999999999998
 33
0.0
  0
MTEXT
  5
2486
330
2004
100
AcDbEntity
  8
寸法
 62
     0
370
    13
100
AcDbMText
 10
1600.0
 20
3140.598011363634
 30
0.0
 40
37.5
 41
0.0
 71
     5
 72
     1
  1
レール
 73
     1
 44
1.0
  0
POINT
  5
2487
330
2004
100
AcDbEntity
  8
Defpoints
 62
     0
100
AcDbPoint
 10
750.0
 20
2962.0
 30
0.0
  0
POINT
  5
2488
330
2004
100
AcDbEntity
  8
Defpoints
 62
     0
100
AcDbPoint
 10
2450.0
 20
2962.0
 30
0.0
  0
POINT
  5
2489
330
2004
100
AcDbEntity
  8
Defpoints
 62
     0
100
AcDbPoint
 10
2450.0
 20
3108.999999999998
 30
0.0
  0
ENDBLK
  5
200F
330
2004
100
AcDbEntity
  8
0
100
AcDbBlockEnd
  0
BLOCK
  5
201A
330
2010
100
AcDbEntity
  8
0
100
AcDbBlockBegin
  2
*D8
 70
     1
 10
0.0
 20
0.0
 30
0.0
  3
*D8
  1

  0
LINE
  5
248A
330
2010
100
AcDbEntity
  8
寸法
 62
     0
370
    -2
100
AcDbLine
 10
754.0
 20
2942.999999999999
 30
0.0
 11
754.0
 21
3041.499999999998
 31
0.0
  0
LINE
  5
248B
330
2010
100
AcDbEntity
  8
寸法
 62
     0
370
    -2
100
AcDbLine
 10
1654.0
 20
2943.0
 30
0.0
 11
1654.0
 21
3041.499999999998
 31
0.0
  0
LINE
  5
248C
330
2010
100
AcDbEntity
  8
寸法
 62
     0
370
    -2
100
AcDbLine
 10
784.0
 20
3033.999999999998
 30
0.0
 11
1624.0
 21
3033.999999999998
 31
0.0
  0
SOLID
  5
248D
330
2010
100
AcDbEntity
  8
寸法
 62
     0
100
AcDbTrace
 10
784.0
 20
3038.999999999998
 30
0.0
 11
784.0
 21
3028.999999999998
 31
0.0
 12
754.0
 22
3033.999999999998
 32
0.0
 13
754.0
 23
3033.999999999998
 33
0.0
  0
SOLID
  5
248E
330
2010
100
AcDbEntity
  8
寸法
 62
     0
100
AcDbTrace
 10
1624.0
 20
3038.999999999998
 30
0.0
 11
1624.0
 21
3028.999999999998
 31
0.0
 12
1654.0
 22
3033.999999999998
 32
0.0
 13
1654.0
 23
3033.999999999998
 33
0.0
  0
MTEXT
  5
248F
330
2010
100
AcDbEntity
  8
寸法
 62
     0
370
    13
100
AcDbMText
 10
1204.0
 20
3068.47443181818
 30
0.0
 40
37.5
 41
0.0
 71
     5
 72
     1
  1
引戸 GW
 73
     1
 44
1.0
  0
POINT
  5
2490
330
2010
100
AcDbEntity
  8
Defpoints
 62
     0
100
AcDbPoint
 10
754.0
 20
2912.999999999999
 30
0.0
  0
POINT
  5
2491
330
2010
100
AcDbEntity
  8
Defpoints
 62
     0
100
AcDbPoint
 10
1654.0
 20
2913.0
 30
0.0
  0
POINT
  5
2492
330
2010
100
AcDbEntity
  8
Defpoints
 62
     0
100
AcDbPoint
 10
1654.0
 20
3033.999999999998
 30
0.0
  0
ENDBLK
  5
201B
330
2010
100
AcDbEntity
  8
0
100
AcDbBlockEnd
  0
BLOCK
  5
2024
330
201C
100
AcDbEntity
  8
0
100
AcDbBlockBegin
  2
*D9
 70
     1
 10
0.0
 20
0.0
 30
0.0
  3
*D9
  1

  0
LINE
  5
24B3
330
201C
100
AcDbEntity
  8
寸法
 62
     0
370
    -2
100
AcDbLine
 10
750.0
 20
2992.0
 30
0.0
 11
750.0
 21
3041.499999999998
 31
0.0
  0
LINE
  5
24B4
330
201C
100
AcDbEntity
  8
寸法
 62
     0
370
    -2
100
AcDbLine
 10
754.0
 20
2942.999999999999
 30
0.0
 11
754.0
 21
3041.499999999998
 31
0.0
  0
MTEXT
  5
24B5
330
201C
100
AcDbEntity
  8
寸法
 62
     0
370
    13
100
AcDbMText
 10
791.0
 20
3063.999999999998
 30
0.0
 40
37.5
 41
0.0
 71
     5
 72
     1
  1
4
 73
     1
 44
1.0
  0
LINE
  5
24B6
330
201C
100
AcDbEntity
  8
寸法
 62
     0
370
    -2
100
AcDbLine
 10
750.0
 20
3033.999999999998
 30
0.0
 11
754.0
 21
3033.999999999998
 31
0.0
  0
POINT
  5
24B7
330
201C
100
AcDbEntity
  8
Defpoints
 62
     0
100
AcDbPoint
 10
750.0
 20
2962.0
 30
0.0
  0
POINT
  5
24B8
330
201C
100
AcDbEntity
  8
Defpoints
 62
     0
100
AcDbPoint
 10
754.0
 20
2912.999999999999
 30
0.0
  0
POINT
  5
24B9
330
201C
100
AcDbEntity
  8
Defpoints
 62
     0
100
AcDbPoint
 10
754.0
 20
3033.999999999998
 30
0.0
  0
ENDBLK
  5
2025
330
201C
100
AcDbEntity
  8
0
100
AcDbBlockEnd
  0
BLOCK
  5
202E
330
2026
100
AcDbEntity
  8
0
100
AcDbBlockBegin
  2
*D10
 70
     1
 10
0.0
 20
0.0
 30
0.0
  3
*D10
  1

  0
LINE
  5
24AC
330
2026
100
AcDbEntity
  8
寸法
 62
     0
370
    -2
100
AcDbLine
 10
720.0
 20
2962.0
 30
0.0
 11
592.4999999999999
 21
2962.0
 31
0.0
  0
LINE
  5
24AD
330
2026
100
AcDbEntity
  8
寸法
 62
     0
370
    -2
100
AcDbLine
 10
720.0
 20
2919.0
 30
0.0
 11
592.4999999999999
 21
2919.0
 31
0.0
  0
LINE
  5
24AE
330
2026
100
AcDbEntity
  8
寸法
 62
     0
370
    -2
100
AcDbLine
 10
600.0
 20
2962.0
 30
0.0
 11
600.0
 21
2919.0
 31
0.0
  0
MTEXT
  5
24AF
330
2026
100
AcDbEntity
  8
寸法
 62
     0
370
    13
100
AcDbMText
 10
569.9999999999995
 20
2940.5
 30
0.0
 40
37.5
 41
0.0
 71
     5
 72
     1
  1
43
 11
0.0000000000000001
 21
1.0
 31
0.0
 73
     1
 44
1.0
  0
POINT
  5
24B0
330
2026
100
AcDbEntity
  8
Defpoints
 62
     0
100
AcDbPoint
 10
750.0
 20
2962.0
 30
0.0
  0
POINT
  5
24B1
330
2026
100
AcDbEntity
  8
Defpoints
 62
     0
100
AcDbPoint
 10
750.0
 20
2919.0
 30
0.0
  0
POINT
  5
24B2
330
2026
100
AcDbEntity
  8
Defpoints
 62
     0
100
AcDbPoint
 10
600.0
 20
2919.0
 30
0.0
  0
ENDBLK
  5
202F
330
2026
100
AcDbEntity
  8
0
100
AcDbBlockEnd
  0
BLOCK
  5
2038
330
2030
100
AcDbEntity
  8
0
100
AcDbBlockBegin
  2
*D11
 70
     1
 10
0.0
 20
0.0
 30
0.0
  3
*D11
  1

  0
LINE
  5
24A5
330
2030
100
AcDbEntity
  8
寸法
 62
     0
370
    -2
100
AcDbLine
 10
720.0
 20
2919.0
 30
0.0
 11
667.4999999999999
 21
2919.0
 31
0.0
  0
LINE
  5
24A6
330
2030
100
AcDbEntity
  8
寸法
 62
     0
370
    -2
100
AcDbLine
 10
726.0
 20
2914.999999999999
 30
0.0
 11
667.4999999999999
 21
2914.999999999999
 31
0.0
  0
MTEXT
  5
24A7
330
2030
100
AcDbEntity
  8
寸法
 62
     0
370
    13
100
AcDbMText
 10
645.0
 20
2885.0
 30
0.0
 40
37.5
 41
0.0
 71
     5
 72
     1
  1
4
 11
0.0000000000000001
 21
1.0
 31
0.0
 73
     1
 44
1.0
  0
LINE
  5
24A8
330
2030
100
AcDbEntity
  8
寸法
 62
     0
370
    -2
100
AcDbLine
 10
675.0
 20
2919.0
 30
0.0
 11
675.0
 21
2914.999999999999
 31
0.0
  0
POINT
  5
24A9
330
2030
100
AcDbEntity
  8
Defpoints
 62
     0
100
AcDbPoint
 10
750.0
 20
2919.0
 30
0.0
  0
POINT
  5
24AA
330
2030
100
AcDbEntity
  8
Defpoints
 62
     0
100
AcDbPoint
 10
756.0
 20
2914.999999999999
 30
0.0
  0
POINT
  5
24AB
330
2030
100
AcDbEntity
  8
Defpoints
 62
     0
100
AcDbPoint
 10
675.0
 20
2914.999999999999
 30
0.0
  0
ENDBLK
  5
2039
330
2030
100
AcDbEntity
  8
0
100
AcDbBlockEnd
  0
BLOCK
  5
20DF
330
20D5
100
AcDbEntity
  8
0
100
AcDbBlockBegin
  2
*D12
 70
     1
 10
0.0
 20
0.0
 30
0.0
  3
*D12
  1

  0
LINE
  5
246A
330
20D5
100
AcDbEntity
  8
寸法
 62
     0
370
    -2
100
AcDbLine
 10
874.0
 20
715.0000000000006
 30
0.0
 11
926.4999999999998
 21
715.0000000000006
 31
0.0
  0
LINE
  5
246B
330
20D5
100
AcDbEntity
  8
寸法
 62
     0
370
    -2
100
AcDbLine
 10
844.0
 20
1715.0
 30
0.0
 11
926.5
 21
1715.0
 31
0.0
  0
LINE
  5
246C
330
20D5
100
AcDbEntity
  8
寸法
 62
     0
370
    -2
100
AcDbLine
 10
918.9999999999997
 20
745.0000000000007
 30
0.0
 11
919.0
 21
1685.0
 31
0.0
  0
SOLID
  5
246D
330
20D5
100
AcDbEntity
  8
寸法
 62
     0
100
AcDbTrace
 10
913.9999999999998
 20
745.0000000000007
 30
0.0
 11
923.9999999999998
 21
745.0000000000007
 31
0.0
 12
918.9999999999997
 22
715.0000000000006
 32
0.0
 13
918.9999999999997
 23
715.0000000000006
 33
0.0
  0
SOLID
  5
246E
330
20D5
100
AcDbEntity
  8
寸法
 62
     0
100
AcDbTrace
 10
914.0
 20
1685.0
 30
0.0
 11
924.0
 21
1685.0
 31
0.0
 12
919.0
 22
1715.0
 32
0.0
 13
919.0
 23
1715.0
 33
0.0
  0
MTEXT
  5
246F
330
20D5
100
AcDbEntity
  8
寸法
 62
     0
370
    13
100
AcDbMText
 10
882.8210227272725
 20
1215.0
 30
0.0
 40
37.5
 41
0.0
 71
     5
 72
     1
  1
ｶﾞﾗｽ下端～中心=1000
 11
0.0000000000000001
 21
1.0
 31
0.0
 73
     1
 44
1.0
  0
POINT
  5
2470
330
20D5
100
AcDbEntity
  8
Defpoints
 62
     0
100
AcDbPoint
 10
844.0
 20
715.0000000000006
 30
0.0
  0
POINT
  5
2471
330
20D5
100
AcDbEntity
  8
Defpoints
 62
     0
100
AcDbPoint
 10
814.0
 20
1715.0
 30
0.0
  0
POINT
  5
2472
330
20D5
100
AcDbEntity
  8
Defpoints
 62
     0
100
AcDbPoint
 10
919.0
 20
1715.0
 30
0.0
  0
ENDBLK
  5
20E0
330
20D5
100
AcDbEntity
  8
0
100
AcDbBlockEnd
  0
BLOCK
  5
20E9
330
20E1
100
AcDbEntity
  8
0
100
AcDbBlockBegin
  2
*D13
 70
     1
 10
0.0
 20
0.0
 30
0.0
  3
*D13
  1

  0
LINE
  5
247A
330
20E1
100
AcDbEntity
  8
寸法
 62
     0
370
    -2
100
AcDbLine
 10
750.0
 20
1743.091923219308
 30
0.0
 11
750.0
 21
1824.499999999998
 31
0.0
  0
LINE
  5
247B
330
20E1
100
AcDbEntity
  8
寸法
 62
     0
370
    -2
100
AcDbLine
 10
814.0
 20
1745.0
 30
0.0
 11
814.0
 21
1824.499999999998
 31
0.0
  0
LINE
  5
247C
330
20E1
100
AcDbEntity
  8
寸法
 62
     0
370
    -2
100
AcDbLine
 10
750.0
 20
1816.999999999998
 30
0.0
 11
814.0
 21
1816.999999999998
 31
0.0
  0
MTEXT
  5
247D
330
20E1
100
AcDbEntity
  8
寸法
 62
     0
370
    13
100
AcDbMText
 10
782.0
 20
1846.999999999998
 30
0.0
 40
37.5
 41
0.0
 71
     5
 72
     1
  1
64
 73
     1
 44
1.0
  0
POINT
  5
247E
330
20E1
100
AcDbEntity
  8
Defpoints
 62
     0
100
AcDbPoint
 10
750.0
 20
1713.091923219308
 30
0.0
  0
POINT
  5
247F
330
20E1
100
AcDbEntity
  8
Defpoints
 62
     0
100
AcDbPoint
 10
814.0
 20
1715.0
 30
0.0
  0
POINT
  5
2480
330
20E1
100
AcDbEntity
  8
Defpoints
 62
     0
100
AcDbPoint
 10
814.0
 20
1816.999999999998
 30
0.0
  0
ENDBLK
  5
20EA
330
20E1
100
AcDbEntity
  8
0
100
AcDbBlockEnd
  0
BLOCK
  5
214C
330
2142
100
AcDbEntity
  8
0
100
AcDbBlockBegin
  2
*D14
 70
     1
 10
0.0
 20
0.0
 30
0.0
  3
*D14
  1

  0
LINE
  5
244F
330
2142
100
AcDbEntity
  8
寸法
 62
     0
370
    -2
100
AcDbLine
 10
720.0
 20
705.0
 30
0.0
 11
517.4999999999994
 21
705.0
 31
0.0
  0
LINE
  5
2450
330
2142
100
AcDbEntity
  8
寸法
 62
     0
370
    -2
100
AcDbLine
 10
720.0
 20
2962.0
 30
0.0
 11
517.4999999999999
 21
2962.0
 31
0.0
  0
LINE
  5
2451
330
2142
100
AcDbEntity
  8
寸法
 62
     0
370
    -2
100
AcDbLine
 10
524.9999999999994
 20
735.0
 30
0.0
 11
525.0
 21
2932.0
 31
0.0
  0
SOLID
  5
2452
330
2142
100
AcDbEntity
  8
寸法
 62
     0
100
AcDbTrace
 10
519.9999999999994
 20
735.0
 30
0.0
 11
529.9999999999994
 21
735.0
 31
0.0
 12
524.9999999999994
 22
705.0
 32
0.0
 13
524.9999999999994
 23
705.0
 33
0.0
  0
SOLID
  5
2453
330
2142
100
AcDbEntity
  8
寸法
 62
     0
100
AcDbTrace
 10
520.0
 20
2932.0
 30
0.0
 11
530.0
 21
2932.0
 31
0.0
 12
525.0
 22
2962.0
 32
0.0
 13
525.0
 23
2962.0
 33
0.0
  0
MTEXT
  5
2454
330
2142
100
AcDbEntity
  8
寸法
 62
     0
370
    13
100
AcDbMText
 10
489.9928977272721
 20
1833.5
 30
0.0
 40
37.5
 41
0.0
 71
     5
 72
     1
  1
開口 H
 11
0.0000000000000001
 21
1.0
 31
0.0
 73
     1
 44
1.0
  0
POINT
  5
2455
330
2142
100
AcDbEntity
  8
Defpoints
 62
     0
100
AcDbPoint
 10
750.0
 20
705.0
 30
0.0
  0
POINT
  5
2456
330
2142
100
AcDbEntity
  8
Defpoints
 62
     0
100
AcDbPoint
 10
750.0
 20
2962.0
 30
0.0
  0
POINT
  5
2457
330
2142
100
AcDbEntity
  8
Defpoints
 62
     0
100
AcDbPoint
 10
525.0
 20
2962.0
 30
0.0
  0
ENDBLK
  5
214D
330
2142
100
AcDbEntity
  8
0
100
AcDbBlockEnd
  0
BLOCK
  5
224C
330
2244
100
AcDbEntity
  8
0
100
AcDbBlockBegin
  2
*D15
 70
     1
 10
0.0
 20
0.0
 30
0.0
  3
*D15
  1

  0
LINE
  5
24C1
330
2244
100
AcDbEntity
  8
寸法
 62
     0
370
    -2
100
AcDbLine
 10
2835.500209227873
 20
2991.661794960505
 30
0.0
 11
2835.500209227873
 21
3041.499999999998
 31
0.0
  0
LINE
  5
24C2
330
2244
100
AcDbEntity
  8
寸法
 62
     0
370
    -2
100
AcDbLine
 10
2872.500209227874
 20
2991.699297187281
 30
0.0
 11
2872.500209227874
 21
3041.499999999998
 31
0.0
  0
LINE
  5
24C3
330
2244
100
AcDbEntity
  8
寸法
 62
     0
370
    -2
100
AcDbLine
 10
2835.500209227873
 20
3033.999999999998
 30
0.0
 11
2872.500209227874
 21
3033.999999999998
 31
0.0
  0
MTEXT
  5
24C4
330
2244
100
AcDbEntity
  8
寸法
 62
     0
370
    13
100
AcDbMText
 10
2854.000209227873
 20
3063.999999999998
 30
0.0
 40
37.5
 41
0.0
 71
     5
 72
     1
  1
37
 73
     1
 44
1.0
  0
POINT
  5
24C5
330
2244
100
AcDbEntity
  8
Defpoints
 62
     0
100
AcDbPoint
 10
2835.500209227873
 20
2961.661794960505
 30
0.0
  0
POINT
  5
24C6
330
2244
100
AcDbEntity
  8
Defpoints
 62
     0
100
AcDbPoint
 10
2872.500209227874
 20
2961.699297187281
 30
0.0
  0
POINT
  5
24C7
330
2244
100
AcDbEntity
  8
Defpoints
 62
     0
100
AcDbPoint
 10
2872.500209227874
 20
3033.999999999998
 30
0.0
  0
ENDBLK
  5
224D
330
2244
100
AcDbEntity
  8
0
100
AcDbBlockEnd
  0
BLOCK
  5
2265
330
225D
100
AcDbEntity
  8
0
100
AcDbBlockBegin
  2
*D16
 70
     1
 10
0.0
 20
0.0
 30
0.0
  3
*D16
  1

  0
LINE
  5
24BA
330
225D
100
AcDbEntity
  8
寸法
 62
     0
370
    -2
100
AcDbLine
 10
720.0
 20
3745.000000000001
 30
0.0
 11
667.5000000000001
 21
3745.000000000001
 31
0.0
  0
LINE
  5
24BB
330
225D
100
AcDbEntity
  8
寸法
 62
     0
370
    -2
100
AcDbLine
 10
720.0
 20
3702.000000000001
 30
0.0
 11
667.5000000000001
 21
3702.000000000001
 31
0.0
  0
LINE
  5
24BC
330
225D
100
AcDbEntity
  8
寸法
 62
     0
370
    -2
100
AcDbLine
 10
675.0
 20
3745.000000000001
 30
0.0
 11
675.0
 21
3702.000000000001
 31
0.0
  0
MTEXT
  5
24BD
330
225D
100
AcDbEntity
  8
寸法
 62
     0
370
    13
100
AcDbMText
 10
644.9999999999995
 20
3723.500000000001
 30
0.0
 40
37.5
 41
0.0
 71
     5
 72
     1
  1
43
 11
0.0000000000000001
 21
1.0
 31
0.0
 73
     1
 44
1.0
  0
POINT
  5
24BE
330
225D
100
AcDbEntity
  8
Defpoints
 62
     0
100
AcDbPoint
 10
750.0
 20
3745.000000000001
 30
0.0
  0
POINT
  5
24BF
330
225D
100
AcDbEntity
  8
Defpoints
 62
     0
100
AcDbPoint
 10
750.0
 20
3702.000000000001
 30
0.0
  0
POINT
  5
24C0
330
225D
100
AcDbEntity
  8
Defpoints
 62
     0
100
AcDbPoint
 10
675.0
 20
3702.000000000001
 30
0.0
  0
ENDBLK
  5
2266
330
225D
100
AcDbEntity
  8
0
100
AcDbBlockEnd
  0
ENDSEC
  0
SECTION
  2
ENTITIES
  0
MTEXT
  5
2F8
330
1F
100
AcDbEntity
  8
文字
370
    13
100
AcDbMText
 10
3865.628811799965
 20
355.9102669387789
 30
0.0
 40
37.5
 41
1084.371188200034
 71
     1
 72
     5
  1
EOS スライデングガラスドア
 73
     1
 44
1.0
1001
ACAD
1000
MTEXTBEGIN
1070
    73
1070
     1
1070
    44
1040
1.0
1070
    74
1070
     0
1000
MTEXTEND
  0
MTEXT
  5
2FA
330
1F
100
AcDbEntity
  8
文字
370
    13
100
AcDbMText
 10
3640.628811799965
 20
236.0606137395089
 30
0.0
 40
37.5
 41
225.0
 71
     1
 72
     5
  1
図面名 ：
 73
     1
 44
1.0
1001
ACAD
1000
MTEXTBEGIN
1070
    73
1070
     1
1070
    44
1040
1.0
1070
    74
1070
     0
1000
MTEXTEND
  0
MTEXT
  5
2FB
330
1F
100
AcDbEntity
  8
文字
370
    13
100
AcDbMText
 10
3640.628811799965
 20
355.9102669387789
 30
0.0
 40
37.5
 41
225.0
 71
     1
 72
     5
  1
名　称　：
 73
     1
 44
1.0
1001
ACAD
1000
MTEXTBEGIN
1070
    73
1070
     1
1070
    44
1040
1.0
1070
    74
1070
     0
1000
MTEXTEND
  0
MTEXT
  5
2FC
330
1F
100
AcDbEntity
  8
文字
370
    13
100
AcDbMText
 10
3306.335927950087
 20
200.9960899679181
 30
0.0
 40
30.0
 41
225.0
 71
     1
 72
     5
  1
{\fArial|b0|i0|c0|p32;Scale=1:1}
 73
     1
 44
1.0
1001
ACAD
1000
MTEXTBEGIN
1070
    73
1070
     1
1070
    44
1040
1.0
1070
    74
1070
     0
1000
MTEXTEND
  0
MTEXT
  5
2FD
330
1F
100
AcDbEntity
  8
文字
370
    13
100
AcDbMText
 10
3241.526865582341
 20
265.8051523356639
 30
0.0
 40
30.0
 41
358.473
 71
     1
 72
     5
  1
縮　尺　　（Ａ3）
 73
     1
 44
1.0
1001
ACAD
1000
MTEXTBEGIN
1070
    73
1070
     1
1070
    44
1040
1.0
1070
    74
1070
     0
1000
MTEXTEND
  0
LINE
  5
301
330
1F
100
AcDbEntity
  8
枠
370
    13
100
AcDbLine
 10
3225.0
 20
277.5
 30
0.0
 11
4950.0
 21
277.4999999999999
 31
0.0
  0
LINE
  5
303
330
1F
100
AcDbEntity
  8
枠
370
    13
100
AcDbLine
 10
3600.0
 20
405.0
 30
0.0
 11
3600.0
 21
150.0
 31
0.0
  0
LWPOLYLINE
  5
33E
330
1F
100
AcDbEntity
  8
枠
370
    13
100
AcDbPolyline
 90
        4
 70
     1
 43
0.0
 10
150.0
 20
150.0
 10
6150.0
 20
150.0
 10
6150.0
 20
4304.999999999998
 10
149.9999999999991
 20
4305.0
  0
LINE
  5
34C
330
1F
100
AcDbEntity
  8
枠
370
    13
100
AcDbLine
 10
150.0
 20
405.0
 30
0.0
 11
6150.0
 21
405.0
 31
0.0
  0
LINE
  5
34D
330
1F
100
AcDbEntity
  8
枠
370
    13
100
AcDbLine
 10
1687.5
 20
277.4999999999999
 30
0.0
 11
3187.5
 21
277.4999999999999
 31
0.0
  0
LINE
  5
34E
330
1F
100
AcDbEntity
  8
枠
370
    13
100
AcDbLine
 10
1687.5
 20
341.25
 30
0.0
 11
3187.5
 21
341.25
 31
0.0
  0
LINE
  5
34F
330
1F
100
AcDbEntity
  8
枠
370
    13
100
AcDbLine
 10
1650.0
 20
405.0
 30
0.0
 11
1650.0
 21
150.0
 31
0.0
  0
LINE
  5
350
330
1F
100
AcDbEntity
  8
枠
370
    13
100
AcDbLine
 10
3225.0
 20
405.0
 30
0.0
 11
3225.0
 21
150.0
 31
0.0
  0
LINE
  5
351
330
1F
100
AcDbEntity
  8
枠
370
    13
100
AcDbLine
 10
5550.0
 20
405.0
 30
0.0
 11
5550.0
 21
150.0
 31
0.0
  0
LINE
  5
352
330
1F
100
AcDbEntity
  8
枠
370
    13
100
AcDbLine
 10
5850.0
 20
405.0
 30
0.0
 11
5850.0
 21
150.0
 31
0.0
  0
MTEXT
  5
354
330
1F
100
AcDbEntity
  8
文字
370
    13
100
AcDbMText
 10
6000.0
 20
367.5
 30
0.0
 40
30.0
 41
281.583
 71
     5
 72
     5
  1
番　号
 73
     1
 44
1.0
1001
ACAD
1000
MTEXTBEGIN
1070
    73
1070
     1
1070
    44
1040
1.0
1070
    74
1070
     0
1000
MTEXTEND
  0
LINE
  5
355
330
1F
100
AcDbEntity
  8
枠
370
    13
100
AcDbLine
 10
1687.5
 20
213.75
 30
0.0
 11
3187.5
 21
213.75
 31
0.0
  0
MTEXT
  5
36C
330
1F
100
AcDbEntity
  8
文字
370
    13
100
AcDbMText
 10
5700.0
 20
367.5
 30
0.0
 40
30.0
 41
281.583
 71
     5
 72
     5
  1
認　証
 73
     1
 44
1.0
1001
ACAD
1000
MTEXTBEGIN
1070
    73
1070
     1
1070
    44
1040
1.0
1070
    74
1070
     0
1000
MTEXTEND
  0
MTEXT
  5
36D
330
1F
100
AcDbEntity
  8
文字
370
    13
100
AcDbMText
 10
5400.0
 20
367.5
 30
0.0
 40
30.0
 41
281.583
 71
     5
 72
     5
  1
確　認
 73
     1
 44
1.0
1001
ACAD
1000
MTEXTBEGIN
1070
    73
1070
     1
1070
    44
1040
1.0
1070
    74
1070
     0
1000
MTEXTEND
  0
LINE
  5
36E
330
1F
100
AcDbEntity
  8
枠
370
    13
100
AcDbLine
 10
5250.0
 20
405.0
 30
0.0
 11
5250.0
 21
150.0
 31
0.0
  0
LINE
  5
36F
330
1F
100
AcDbEntity
  8
枠
370
    13
100
AcDbLine
 10
4950.0
 20
405.0
 30
0.0
 11
4950.0
 21
150.0
 31
0.0
  0
MTEXT
  5
370
330
1F
100
AcDbEntity
  8
文字
370
    13
100
AcDbMText
 10
5100.0
 20
367.5
 30
0.0
 40
30.0
 41
281.583
 71
     5
 72
     5
  1
作　成
 73
     1
 44
1.0
1001
ACAD
1000
MTEXTBEGIN
1070
    73
1070
     1
1070
    44
1040
1.0
1070
    74
1070
     0
1000
MTEXTEND
  0
LINE
  5
371
330
1F
100
AcDbEntity
  8
枠
370
    13
100
AcDbLine
 10
5250.0
 20
405.0
 30
0.0
 11
5250.0
 21
150.0
 31
0.0
  0
MTEXT
  5
372
330
1F
100
AcDbEntity
  8
文字
370
    13
100
AcDbMText
 10
5100.0
 20
240.0
 30
0.0
 40
37.5
 41
281.583
 71
     5
 72
     5
  1
大　曲
 73
     1
 44
1.0
1001
ACAD
1000
MTEXTBEGIN
1070
    73
1070
     1
1070
    44
1040
1.0
1070
    74
1070
     0
1000
MTEXTEND
  0
LINE
  5
373
330
1F
100
AcDbEntity
  8
枠
370
    13
100
AcDbLine
 10
4950.0
 20
330.0
 30
0.0
 11
6150.0
 21
330.0
 31
0.0
  0
MTEXT
  5
374
330
1F
100
AcDbEntity
  8
文字
370
    13
100
AcDbMText
 10
6000.0
 20
240.0
 30
0.0
 40
37.5
 41
281.583
 71
     5
 72
     5
  1
1
 73
     1
 44
1.0
1001
ACAD
1000
MTEXTBEGIN
1070
    73
1070
     1
1070
    44
1040
1.0
1070
    74
1070
     0
1000
MTEXTEND
  0
MTEXT
  5
3D4
330
1F
100
AcDbEntity
  8
文字
370
    13
100
AcDbMText
 10
525.0
 20
277.4999999999999
 30
0.0
 40
75.0
 41
728.7447669291228
 71
     5
 72
     5
  1
INAL-JAPAN
 73
     1
 44
1.0
1001
ACAD
1000
MTEXTBEGIN
1070
    73
1070
     1
1070
    44
1040
1.0
1070
    74
1070
     0
1000
MTEXTEND
  0
MTEXT
  5
3F4
330
1F
100
AcDbEntity
  8
文字
370
    13
100
AcDbMText
 10
900.0
 20
277.4999999999999
 30
0.0
 40
30.0
 41
745.2659999999999
 71
     4
 72
     5
  1
〒177-0041　東京都練馬区石神井町\P　　　　　　　　　2-27-8 シティハウス106\P　　　　　　　　　Mail：info@inal.jp　\P　　　　　　　　　FAX：03-6766-8971
 73
     1
 44
1.0
1001
ACAD
1000
MTEXTBEGIN
1070
    73
1070
     1
1070
    44
1040
1.0
1070
    74
1070
     0
1000
MTEXTEND
  0
MTEXT
  5
3F8
330
1F
100
AcDbEntity
  8
文字
370
    13
100
AcDbMText
 10
1687.5
 20
373.125
 30
0.0
 40
30.0
 41
281.583
 71
     4
 72
     5
  1
備　考
 73
     1
 44
1.0
1001
ACAD
1000
MTEXTBEGIN
1070
    73
1070
     1
1070
    44
1040
1.0
1070
    74
1070
     0
1000
MTEXTEND
  0
LWPOLYLINE
  5
430
330
1F
100
AcDbEntity
  8
Defpoints
 62
     2
370
    13
100
AcDbPolyline
 90
        4
 70
     1
 43
0.0
 10
46.4249999999987
 20
47.39999999999819
 10
6253.575000000001
 20
47.39999999999819
 10
6253.575000000001
 20
4407.599999999998
 10
46.4249999999987
 20
4407.599999999998
  0
MTEXT
  5
484
330
1F
100
AcDbEntity
  8
文字
370
    13
100
AcDbMText
 10
3241.52686558234
 20
393.305152335664
 30
0.0
 40
30.0
 41
358.473
 71
     1
 72
     5
  1
ＤＡＴＥ
 73
     1
 44
1.0
1001
ACAD
1000
MTEXTBEGIN
1070
    73
1070
     1
1070
    44
1040
1.0
1070
    74
1070
     0
1000
MTEXTEND
  0
MTEXT
  5
485
330
1F
100
AcDbEntity
  8
文字
370
    13
100
AcDbMText
 10
3306.335927950087
 20
328.4960899679181
 30
0.0
 40
30.0
 41
225.0
 71
     1
 72
     5
  1
2024.04.06
 73
     1
 44
1.0
1001
ACAD
1000
MTEXTBEGIN
1070
    73
1070
     1
1070
    44
1040
1.0
1070
    74
1070
     0
1000
MTEXTEND
  0
LINE
  5
14C8
102
{ACAD_REACTORS
330
1EC9
102
}
330
1F
100
AcDbEntity
  8
0
 62
     1
370
    13
100
AcDbLine
 10
1604.0
 20
3722.999999999837
 30
0.0
 11
1604.0
 21
3700.999999999837
 31
0.0
  0
LINE
  5
14C9
102
{ACAD_REACTORS
330
1EC9
102
}
330
1F
100
AcDbEntity
  8
0
 62
     1
370
    13
100
AcDbLine
 10
1654.0
 20
3700.999999999837
 30
0.0
 11
1654.0
 21
3722.999999999837
 31
0.0
  0
LWPOLYLINE
  5
14CA
102
{ACAD_REACTORS
330
1EC8
102
}
330
1F
100
AcDbEntity
  8
0
 62
     1
370
    13
100
AcDbPolyline
 90
        4
 70
     1
 43
0.0
 10
1654.0
 20
705.0
 10
1604.0
 20
705.0
 10
1604.0
 20
728.0
 10
1654.0
 20
728.0
  0
LINE
  5
14CB
102
{ACAD_REACTORS
330
1EC8
102
}
330
1F
100
AcDbEntity
  8
0
  6
ACAD_ISO07W100
 62
     1
370
    13
100
AcDbLine
 10
1654.0
 20
708.0
 30
0.0
 11
1604.0
 21
708.0
 31
0.0
  0
LINE
  5
14CC
102
{ACAD_REACTORS
330
1EC9
102
}
330
1F
100
AcDbEntity
  8
0
 62
     1
370
    13
100
AcDbLine
 10
1654.0
 20
3704.499999999837
 30
0.0
 11
1604.0
 21
3704.499999999837
 31
0.0
  0
LINE
  5
14CD
102
{ACAD_REACTORS
330
1EC9
102
}
330
1F
100
AcDbEntity
  8
0
 62
     1
370
    13
100
AcDbLine
 10
1654.0
 20
3719.499999999837
 30
0.0
 11
1604.0
 21
3719.499999999837
 31
0.0
  0
ARC
  5
14CE
102
{ACAD_REACTORS
330
1EC9
102
}
330
1F
100
AcDbEntity
  8
0
 62
     1
370
    13
100
AcDbCircle
 10
1629.0
 20
3768.201497883047
 30
0.0
 40
71.70105520665036
100
AcDbArc
 50
249.5940179635076
 51
290.4059820364923
  0
CIRCLE
  5
14CF
102
{ACAD_REACTORS
330
1EC9
102
}
330
1F
100
AcDbEntity
  8
0
  6
ACAD_ISO07W100
 62
     1
370
    13
100
AcDbCircle
 10
1614.0
 20
3711.999999999837
 30
0.0
 40
5.0
  0
CIRCLE
  5
14D0
102
{ACAD_REACTORS
330
1EC9
102
}
330
1F
100
AcDbEntity
  8
0
 62
     1
370
    13
100
AcDbCircle
 10
1614.0
 20
3711.999999999837
 30
0.0
 40
2.5
  0
CIRCLE
  5
14D1
102
{ACAD_REACTORS
330
1EC9
102
}
330
1F
100
AcDbEntity
  8
0
 62
     1
370
    13
100
AcDbCircle
 10
1644.0
 20
3711.999999999837
 30
0.0
 40
2.5
  0
CIRCLE
  5
14D2
102
{ACAD_REACTORS
330
1EC9
102
}
330
1F
100
AcDbEntity
  8
0
  6
ACAD_ISO07W100
 62
     1
370
    13
100
AcDbCircle
 10
1644.0
 20
3711.999999999837
 30
0.0
 40
5.0
  0
LWPOLYLINE
  5
14D3
102
{ACAD_REACTORS
330
18B1
102
}
330
1F
100
AcDbEntity
  8
0
 62
     1
370
    13
100
AcDbPolyline
 90
        4
 70
     0
 43
0.0
 10
2837.0
 20
728.0
 10
2837.0
 20
708.0
 10
2851.0
 20
708.0
 10
2851.0
 20
728.0
  0
LWPOLYLINE
  5
14D4
102
{ACAD_REACTORS
330
18B1
102
}
330
1F
100
AcDbEntity
  8
0
 62
     1
370
    13
100
AcDbPolyline
 90
        6
 70
     0
 43
0.0
 10
2837.0
 20
728.0
 10
2828.5
 20
728.0
 10
2828.5
 20
705.0
 10
2859.5
 20
705.0
 10
2859.5
 20
728.0
 10
2851.0
 20
728.0
  0
ARC
  5
14D5
102
{ACAD_REACTORS
330
1EC9
102
}
330
1F
100
AcDbEntity
  8
0
 62
     1
370
    13
100
AcDbCircle
 10
1629.0
 20
3655.798502116628
 30
0.0
 40
71.70105520664953
100
AcDbArc
 50
69.59401796350767
 51
110.4059820364923
  0
LWPOLYLINE
  5
14D6
102
{ACAD_REACTORS
330
1543
102
}
330
1F
100
AcDbEntity
  8
0
 62
     4
370
    13
100
AcDbPolyline
 90
        8
 70
     1
 43
0.0
 10
756.0
 20
715.0
 10
1652.0
 20
715.0
 10
1654.0
 20
717.0
 10
1654.0
 20
2912.999999999999
 10
1652.0
 20
2914.999999999999
 10
756.0
 20
2915.0
 10
754.0
 20
2913.0
 10
754.0
 20
717.0
  0
CIRCLE
  5
14FF
102
{ACAD_REACTORS
330
1543
102
}
330
1F
100
AcDbEntity
  8
0
 62
     4
370
    13
100
AcDbCircle
 10
904.0
 20
2880.0
 30
0.0
 40
9.0
  0
CIRCLE
  5
1528
102
{ACAD_REACTORS
330
1543
102
}
330
1F
100
AcDbEntity
  8
0
 62
     4
370
    13
100
AcDbCircle
 10
1504.0
 20
2880.0
 30
0.0
 40
9.0
  0
CIRCLE
  5
1542
102
{ACAD_REACTORS
330
1543
102
}
330
1F
100
AcDbEntity
  8
0
 62
     4
370
    13
100
AcDbCircle
 10
814.0
 20
1715.0
 30
0.0
 40
25.0
  0
CIRCLE
  5
1544
330
1F
100
AcDbEntity
  8
0
 62
     5
370
    13
100
AcDbCircle
 10
814.0
 20
1715.0
 30
0.0
 40
30.0
  0
LWPOLYLINE
  5
1545
330
1F
100
AcDbEntity
  8
0
  6
ACAD_ISO03W100
370
    13
100
AcDbPolyline
 90
        4
 70
     1
 43
0.0
 10
750.0
 20
705.0
 10
1604.0
 20
705.0
 10
1604.0
 20
2962.0
 10
750.0
 20
2962.0
  0
LINE
  5
1553
330
1F
100
AcDbEntity
  8
0
370
    13
100
AcDbLine
 10
750.0
 20
2962.0
 30
0.0
 11
750.0
 21
705.0
 31
0.0
  0
LINE
  5
1554
330
1F
100
AcDbEntity
  8
0
370
    13
100
AcDbLine
 10
750.0
 20
2962.0
 30
0.0
 11
3150.0
 21
2962.0
 31
0.0
  0
LINE
  5
1555
330
1F
100
AcDbEntity
  8
0
370
    13
100
AcDbLine
 10
750.0
 20
705.0
 30
0.0
 11
3150.0
 21
705.0
 31
0.0
  0
LWPOLYLINE
  5
1556
330
1F
100
AcDbEntity
  8
0
 62
     4
370
    13
100
AcDbPolyline
 90
        8
 70
     1
 43
0.0
 10
2849.0
 20
715.9999999999995
 10
2849.0
 20
2913.999999999999
 10
2848.0
 20
2914.999999999999
 10
2840.0
 20
2915.0
 10
2839.0
 20
2914.0
 10
2839.0
 20
716.0000000000004
 10
2840.0
 20
715.0000000000004
 10
2848.0
 20
714.9999999999995
  0
SPLINE
  5
155C
102
{ACAD_REACTORS
330
15D2
102
}
330
1F
100
AcDbEntity
  8
0
 62
     8
370
    13
100
AcDbSpline
210
0.0
220
0.0
230
1.0
 70
    24
 71
     3
 72
     8
 73
     4
 74
     0
 42
0.0000000001
 43
0.0000000001
 40
7.0
 40
7.0
 40
7.0
 40
7.0
 40
8.0
 40
8.0
 40
8.0
 40
8.0
 10
2871.299126154092
 20
2921.702521560146
 30
0.0
 10
2871.299126154092
 20
2921.702521560146
 30
0.0
 10
2863.928450888389
 20
2921.710298357028
 30
0.0
 10
2863.928450888389
 20
2921.710298357028
 30
0.0
  0
SPLINE
  5
155D
102
{ACAD_REACTORS
330
15D2
102
}
330
1F
100
AcDbEntity
  8
0
 62
     8
370
    13
100
AcDbSpline
210
0.0
220
0.0
230
1.0
 70
    24
 71
     3
 72
     8
 73
     4
 74
     0
 42
0.0000000001
 43
0.0000000001
 40
21.0
 40
21.0
 40
21.0
 40
21.0
 40
22.0
 40
22.0
 40
22.0
 40
22.0
 10
2869.24259542345
 20
2929.979625706711
 30
0.0
 10
2869.24259542345
 20
2929.979625706711
 30
0.0
 10
2869.24259542345
 20
2953.916451686904
 30
0.0
 10
2869.24259542345
 20
2953.916451686904
 30
0.0
  0
SPLINE
  5
155E
102
{ACAD_REACTORS
330
15D2
102
}
330
1F
100
AcDbEntity
  8
0
 62
     8
370
    13
100
AcDbSpline
210
0.0
220
0.0
230
1.0
 70
     8
 71
     3
 72
     8
 73
     4
 74
     0
 42
0.0000000001
 43
0.0000000001
 40
18.0
 40
18.0
 40
18.0
 40
18.0
 40
19.0
 40
19.0
 40
19.0
 40
19.0
 10
2862.0222715641
 20
2923.136044451799
 30
0.0
 10
2862.0222715641
 20
2923.394406925944
 30
0.0
 10
2862.212371043407
 20
2923.608700884431
 30
0.0
 10
2862.469869429006
 20
2923.63548762924
 30
0.0
  0
SPLINE
  5
155F
102
{ACAD_REACTORS
330
15D2
102
}
330
1F
100
AcDbEntity
  8
0
 62
     8
370
    13
100
AcDbSpline
210
0.0
220
0.0
230
1.0
 70
    24
 71
     3
 72
     8
 73
     4
 74
     0
 42
0.0000000001
 43
0.0000000001
 40
17.0
 40
17.0
 40
17.0
 40
17.0
 40
18.0
 40
18.0
 40
18.0
 40
18.0
 10
2862.0222715641
 20
2920.425398694644
 30
0.0
 10
2862.0222715641
 20
2920.425398694644
 30
0.0
 10
2862.0222715641
 20
2923.136044451799
 30
0.0
 10
2862.0222715641
 20
2923.136044451799
 30
0.0
  0
SPLINE
  5
1560
102
{ACAD_REACTORS
330
15D2
102
}
330
1F
100
AcDbEntity
  8
0
 62
     8
370
    13
100
AcDbSpline
210
0.0
220
0.0
230
1.0
 70
     8
 71
     3
 72
     8
 73
     4
 74
     0
 42
0.0000000001
 43
0.0000000001
 40
16.0
 40
16.0
 40
16.0
 40
16.0
 40
17.0
 40
17.0
 40
17.0
 40
17.0
 10
2862.519986564458
 20
2919.924227340123
 30
0.0
 10
2862.246934585099
 20
2919.924227340123
 30
0.0
 10
2862.0222715641
 20
2920.14716218403
 30
0.0
 10
2862.0222715641
 20
2920.425398694644
 30
0.0
  0
SPLINE
  5
1561
102
{ACAD_REACTORS
330
15D2
102
}
330
1F
100
AcDbEntity
  8
0
 62
     8
370
    13
100
AcDbSpline
210
0.0
220
0.0
230
1.0
 70
    24
 71
     3
 72
     8
 73
     4
 74
     0
 42
0.0000000001
 43
0.0000000001
 40
15.0
 40
15.0
 40
15.0
 40
15.0
 40
16.0
 40
16.0
 40
16.0
 40
16.0
 10
2862.786125835483
 20
2919.924227340123
 30
0.0
 10
2862.786125835483
 20
2919.924227340123
 30
0.0
 10
2862.519986564458
 20
2919.924227340123
 30
0.0
 10
2862.519986564458
 20
2919.924227340123
 30
0.0
  0
SPLINE
  5
1562
102
{ACAD_REACTORS
330
15D2
102
}
330
1F
100
AcDbEntity
  8
0
 62
     8
370
    13
100
AcDbSpline
210
0.0
220
0.0
230
1.0
 70
     8
 71
     3
 72
     8
 73
     4
 74
     0
 42
0.0000000001
 43
0.0000000001
 40
14.0
 40
14.0
 40
14.0
 40
14.0
 40
15.0
 40
15.0
 40
15.0
 40
15.0
 10
2863.786740367451
 20
2918.998788511331
 30
0.0
 10
2863.263102710829
 20
2918.998788511331
 30
0.0
 10
2862.827602085516
 20
2919.402317860578
 30
0.0
 10
2862.786125835483
 20
2919.924227340123
 30
0.0
  0
SPLINE
  5
1563
102
{ACAD_REACTORS
330
15D2
102
}
330
1F
100
AcDbEntity
  8
0
 62
     8
370
    13
100
AcDbSpline
210
0.0
220
0.0
230
1.0
 70
    24
 71
     3
 72
     8
 73
     4
 74
     0
 42
0.0000000001
 43
0.0000000001
 40
8.0
 40
8.0
 40
8.0
 40
8.0
 40
9.0
 40
9.0
 40
9.0
 40
9.0
 10
2863.928450888389
 20
2921.710298357028
 30
0.0
 10
2863.928450888389
 20
2921.710298357028
 30
0.0
 10
2863.926722711306
 20
2920.204192027821
 30
0.0
 10
2863.926722711306
 20
2920.204192027821
 30
0.0
  0
SPLINE
  5
1564
102
{ACAD_REACTORS
330
15D2
102
}
330
1F
100
AcDbEntity
  8
0
 62
     8
370
    13
100
AcDbSpline
210
0.0
220
0.0
230
1.0
 70
     8
 71
     3
 72
     8
 73
     4
 74
     0
 42
0.0000000001
 43
0.0000000001
 40
0.0
 40
0.0
 40
0.0
 40
0.0
 40
1.0
 40
1.0
 40
1.0
 40
1.0
 10
2872.500209227874
 20
2920.198143408023
 30
0.0
 10
2872.501937404956
 20
2919.534523407548
 30
0.0
 10
2871.962746154569
 20
2918.993603980076
 30
0.0
 10
2871.299126154092
 20
2918.993603980076
 30
0.0
  0
SPLINE
  5
1565
102
{ACAD_REACTORS
330
15D2
102
}
330
1F
100
AcDbEntity
  8
0
 62
     8
370
    13
100
AcDbSpline
210
0.0
220
0.0
230
1.0
 70
    24
 71
     3
 72
     8
 73
     4
 74
     0
 42
0.0000000001
 43
0.0000000001
 40
1.0
 40
1.0
 40
1.0
 40
1.0
 40
2.0
 40
2.0
 40
2.0
 40
2.0
 10
2871.299126154092
 20
2918.993603980076
 30
0.0
 10
2871.299126154092
 20
2918.993603980076
 30
0.0
 10
2870.295055267955
 20
2918.993603980076
 30
0.0
 10
2870.295055267955
 20
2918.993603980076
 30
0.0
  0
SPLINE
  5
1566
102
{ACAD_REACTORS
330
15D2
102
}
330
1F
100
AcDbEntity
  8
0
 62
     8
370
    13
100
AcDbSpline
210
0.0
220
0.0
230
1.0
 70
     8
 71
     3
 72
     8
 73
     4
 74
     0
 42
0.0000000001
 43
0.0000000001
 40
2.0
 40
2.0
 40
2.0
 40
2.0
 40
3.0
 40
3.0
 40
3.0
 40
3.0
 10
2870.295055267955
 20
2918.993603980076
 30
0.0
 10
2870.016818757344
 20
2918.993603980076
 30
0.0
 10
2869.792155736345
 20
2919.219995178154
 30
0.0
 10
2869.793883913427
 20
2919.498231688772
 30
0.0
  0
SPLINE
  5
1567
102
{ACAD_REACTORS
330
15D2
102
}
330
1F
100
AcDbEntity
  8
0
 62
     8
370
    13
100
AcDbSpline
210
0.0
220
0.0
230
1.0
 70
    24
 71
     3
 72
     8
 73
     4
 74
     0
 42
0.0000000001
 43
0.0000000001
 40
3.0
 40
3.0
 40
3.0
 40
3.0
 40
4.0
 40
4.0
 40
4.0
 40
4.0
 10
2869.793883913427
 20
2919.498231688772
 30
0.0
 10
2869.793883913427
 20
2919.498231688772
 30
0.0
 10
2869.793883913427
 20
2919.897440595311
 30
0.0
 10
2869.793883913427
 20
2919.897440595311
 30
0.0
  0
SPLINE
  5
1568
102
{ACAD_REACTORS
330
15D2
102
}
330
1F
100
AcDbEntity
  8
0
 62
     8
370
    13
100
AcDbSpline
210
0.0
220
0.0
230
1.0
 70
     8
 71
     3
 72
     8
 73
     4
 74
     0
 42
0.0000000001
 43
0.0000000001
 40
4.0
 40
4.0
 40
4.0
 40
4.0
 40
5.0
 40
5.0
 40
5.0
 40
5.0
 10
2869.793883913427
 20
2919.897440595311
 30
0.0
 10
2869.793883913427
 20
2920.06420968397
 30
0.0
 10
2869.928681726028
 20
2920.198143408023
 30
0.0
 10
2870.094586726148
 20
2920.198143408023
 30
0.0
  0
SPLINE
  5
1569
102
{ACAD_REACTORS
330
15D2
102
}
330
1F
100
AcDbEntity
  8
0
 62
     8
370
    13
100
AcDbSpline
210
0.0
220
0.0
230
1.0
 70
    24
 71
     3
 72
     8
 73
     4
 74
     0
 42
0.0000000001
 43
0.0000000001
 40
5.0
 40
5.0
 40
5.0
 40
5.0
 40
6.0
 40
6.0
 40
6.0
 40
6.0
 10
2870.094586726148
 20
2920.198143408023
 30
0.0
 10
2870.094586726148
 20
2920.198143408023
 30
0.0
 10
2871.297397977011
 20
2920.196415230943
 30
0.0
 10
2871.297397977011
 20
2920.196415230943
 30
0.0
  0
SPLINE
  5
156A
102
{ACAD_REACTORS
330
15D2
102
}
330
1F
100
AcDbEntity
  8
0
 62
     8
370
    13
100
AcDbSpline
210
0.0
220
0.0
230
1.0
 70
    24
 71
     3
 72
     8
 73
     4
 74
     0
 42
0.0000000001
 43
0.0000000001
 40
6.0
 40
6.0
 40
6.0
 40
6.0
 40
7.0
 40
7.0
 40
7.0
 40
7.0
 10
2871.297397977011
 20
2920.196415230943
 30
0.0
 10
2871.297397977011
 20
2920.196415230943
 30
0.0
 10
2871.299126154092
 20
2921.702521560146
 30
0.0
 10
2871.299126154092
 20
2921.702521560146
 30
0.0
  0
SPLINE
  5
156B
102
{ACAD_REACTORS
330
15D2
102
}
330
1F
100
AcDbEntity
  8
0
 62
     8
370
    13
100
AcDbSpline
210
0.0
220
0.0
230
1.0
 70
    24
 71
     3
 72
     8
 73
     4
 74
     0
 42
0.0000000001
 43
0.0000000001
 40
9.0
 40
9.0
 40
9.0
 40
9.0
 40
10.0
 40
10.0
 40
10.0
 40
10.0
 10
2863.926722711306
 20
2920.204192027821
 30
0.0
 10
2863.926722711306
 20
2920.204192027821
 30
0.0
 10
2865.13126213925
 20
2920.204192027821
 30
0.0
 10
2865.13126213925
 20
2920.204192027821
 30
0.0
  0
SPLINE
  5
156C
102
{ACAD_REACTORS
330
15D2
102
}
330
1F
100
AcDbEntity
  8
0
 62
     8
370
    13
100
AcDbSpline
210
0.0
220
0.0
230
1.0
 70
     8
 71
     3
 72
     8
 73
     4
 74
     0
 42
0.0000000001
 43
0.0000000001
 40
10.0
 40
10.0
 40
10.0
 40
10.0
 40
11.0
 40
11.0
 40
11.0
 40
11.0
 10
2865.13126213925
 20
2920.204192027821
 30
0.0
 10
2865.297167139372
 20
2920.204192027821
 30
0.0
 10
2865.431964951964
 20
2920.069394215225
 30
0.0
 10
2865.431964951964
 20
2919.900896949479
 30
0.0
  0
SPLINE
  5
156D
102
{ACAD_REACTORS
330
15D2
102
}
330
1F
100
AcDbEntity
  8
0
 62
     8
370
    13
100
AcDbSpline
210
0.0
220
0.0
230
1.0
 70
    24
 71
     3
 72
     8
 73
     4
 74
     0
 42
0.0000000001
 43
0.0000000001
 40
11.0
 40
11.0
 40
11.0
 40
11.0
 40
12.0
 40
12.0
 40
12.0
 40
12.0
 10
2865.431964951964
 20
2919.900896949479
 30
0.0
 10
2865.431964951964
 20
2919.900896949479
 30
0.0
 10
2865.430236774883
 20
2919.499959865859
 30
0.0
 10
2865.430236774883
 20
2919.499959865859
 30
0.0
  0
SPLINE
  5
156E
102
{ACAD_REACTORS
330
15D2
102
}
330
1F
100
AcDbEntity
  8
0
 62
     8
370
    13
100
AcDbSpline
210
0.0
220
0.0
230
1.0
 70
     8
 71
     3
 72
     8
 73
     4
 74
     0
 42
0.0000000001
 43
0.0000000001
 40
12.0
 40
12.0
 40
12.0
 40
12.0
 40
13.0
 40
13.0
 40
13.0
 40
13.0
 10
2865.430236774883
 20
2919.499959865859
 30
0.0
 10
2865.430236774883
 20
2919.223451532325
 30
0.0
 10
2865.205573753884
 20
2918.998788511331
 30
0.0
 10
2864.929065420355
 20
2918.998788511331
 30
0.0
  0
SPLINE
  5
156F
102
{ACAD_REACTORS
330
15D2
102
}
330
1F
100
AcDbEntity
  8
0
 62
     8
370
    13
100
AcDbSpline
210
0.0
220
0.0
230
1.0
 70
    24
 71
     3
 72
     8
 73
     4
 74
     0
 42
0.0000000001
 43
0.0000000001
 40
13.0
 40
13.0
 40
13.0
 40
13.0
 40
14.0
 40
14.0
 40
14.0
 40
14.0
 10
2864.929065420355
 20
2918.998788511331
 30
0.0
 10
2864.929065420355
 20
2918.998788511331
 30
0.0
 10
2863.786740367451
 20
2918.998788511331
 30
0.0
 10
2863.786740367451
 20
2918.998788511331
 30
0.0
  0
SPLINE
  5
1570
102
{ACAD_REACTORS
330
15D2
102
}
330
1F
100
AcDbEntity
  8
0
 62
     8
370
    13
100
AcDbSpline
210
0.0
220
0.0
230
1.0
 70
     8
 71
     3
 72
     8
 73
     4
 74
     0
 42
0.0000000001
 43
0.0000000001
 40
19.0
 40
19.0
 40
19.0
 40
19.0
 40
20.0
 40
20.0
 40
20.0
 40
20.0
 10
2862.469869429006
 20
2923.63548762924
 30
0.0
 10
2864.609352659711
 20
2923.861878827321
 30
0.0
 10
2866.709087817469
 20
2924.369962890185
 30
0.0
 10
2868.715501412655
 20
2925.143322135532
 30
0.0
  0
SPLINE
  5
1571
102
{ACAD_REACTORS
330
15D2
102
}
330
1F
100
AcDbEntity
  8
0
 62
     8
370
    13
100
AcDbSpline
210
0.0
220
0.0
230
1.0
 70
    24
 71
     3
 72
     8
 73
     4
 74
     0
 42
0.0000000001
 43
0.0000000001
 40
20.0
 40
20.0
 40
20.0
 40
20.0
 40
21.0
 40
21.0
 40
21.0
 40
21.0
 10
2868.715501412655
 20
2925.143322135532
 30
0.0
 10
2868.715501412655
 20
2925.143322135532
 30
0.0
 10
2869.24259542345
 20
2929.979625706711
 30
0.0
 10
2869.24259542345
 20
2929.979625706711
 30
0.0
  0
SPLINE
  5
1572
102
{ACAD_REACTORS
330
15D2
102
}
330
1F
100
AcDbEntity
  8
0
 62
     8
370
    13
100
AcDbSpline
210
0.0
220
0.0
230
1.0
 70
    24
 71
     3
 72
     8
 73
     4
 74
     0
 42
0.0000000001
 43
0.0000000001
 40
105.0
 40
105.0
 40
105.0
 40
105.0
 40
106.0
 40
106.0
 40
106.0
 40
106.0
 10
2872.500209227874
 20
2961.699297187281
 30
0.0
 10
2872.500209227874
 20
2961.699297187281
 30
0.0
 10
2872.500209227874
 20
2920.198143408023
 30
0.0
 10
2872.500209227874
 20
2920.198143408023
 30
0.0
  0
SPLINE
  5
1573
102
{ACAD_REACTORS
330
15D2
102
}
330
1F
100
AcDbEntity
  8
0
 62
     8
370
    13
100
AcDbSpline
210
0.0
220
0.0
230
1.0
 70
    24
 71
     3
 72
     8
 73
     4
 74
     0
 42
0.0000000001
 43
0.0000000001
 40
105.0
 40
105.0
 40
105.0
 40
105.0
 40
106.0
 40
106.0
 40
106.0
 40
106.0
 10
2835.500209227874
 20
2961.699297187281
 30
0.0
 10
2835.500209227874
 20
2961.699297187281
 30
0.0
 10
2835.500209227874
 20
2920.198143408023
 30
0.0
 10
2835.500209227874
 20
2920.198143408023
 30
0.0
  0
SPLINE
  5
1574
102
{ACAD_REACTORS
330
15D2
102
}
330
1F
100
AcDbEntity
  8
0
 62
     8
370
    13
100
AcDbSpline
210
0.0
220
0.0
230
1.0
 70
    24
 71
     3
 72
     8
 73
     4
 74
     0
 42
0.0000000001
 43
0.0000000001
 40
20.0
 40
20.0
 40
20.0
 40
20.0
 40
21.0
 40
21.0
 40
21.0
 40
21.0
 10
2839.284917043091
 20
2925.143322135532
 30
0.0
 10
2839.284917043091
 20
2925.143322135532
 30
0.0
 10
2838.757823032299
 20
2929.979625706711
 30
0.0
 10
2838.757823032299
 20
2929.979625706711
 30
0.0
  0
SPLINE
  5
1575
102
{ACAD_REACTORS
330
15D2
102
}
330
1F
100
AcDbEntity
  8
0
 62
     8
370
    13
100
AcDbSpline
210
0.0
220
0.0
230
1.0
 70
     8
 71
     3
 72
     8
 73
     4
 74
     0
 42
0.0000000001
 43
0.0000000001
 40
19.0
 40
19.0
 40
19.0
 40
19.0
 40
20.0
 40
20.0
 40
20.0
 40
20.0
 10
2845.530549026739
 20
2923.63548762924
 30
0.0
 10
2843.391065796034
 20
2923.861878827321
 30
0.0
 10
2841.291330638277
 20
2924.369962890185
 30
0.0
 10
2839.284917043091
 20
2925.143322135532
 30
0.0
  0
SPLINE
  5
1576
102
{ACAD_REACTORS
330
15D2
102
}
330
1F
100
AcDbEntity
  8
0
 62
     8
370
    13
100
AcDbSpline
210
0.0
220
0.0
230
1.0
 70
    24
 71
     3
 72
     8
 73
     4
 74
     0
 42
0.0000000001
 43
0.0000000001
 40
13.0
 40
13.0
 40
13.0
 40
13.0
 40
14.0
 40
14.0
 40
14.0
 40
14.0
 10
2843.071353035394
 20
2918.998788511331
 30
0.0
 10
2843.071353035394
 20
2918.998788511331
 30
0.0
 10
2844.213678088296
 20
2918.998788511331
 30
0.0
 10
2844.213678088296
 20
2918.998788511331
 30
0.0
  0
SPLINE
  5
1577
102
{ACAD_REACTORS
330
15D2
102
}
330
1F
100
AcDbEntity
  8
0
 62
     8
370
    13
100
AcDbSpline
210
0.0
220
0.0
230
1.0
 70
     8
 71
     3
 72
     8
 73
     4
 74
     0
 42
0.0000000001
 43
0.0000000001
 40
12.0
 40
12.0
 40
12.0
 40
12.0
 40
13.0
 40
13.0
 40
13.0
 40
13.0
 10
2842.570181680866
 20
2919.499959865859
 30
0.0
 10
2842.570181680866
 20
2919.223451532325
 30
0.0
 10
2842.794844701863
 20
2918.998788511331
 30
0.0
 10
2843.071353035394
 20
2918.998788511331
 30
0.0
  0
SPLINE
  5
1578
102
{ACAD_REACTORS
330
15D2
102
}
330
1F
100
AcDbEntity
  8
0
 62
     8
370
    13
100
AcDbSpline
210
0.0
220
0.0
230
1.0
 70
    24
 71
     3
 72
     8
 73
     4
 74
     0
 42
0.0000000001
 43
0.0000000001
 40
11.0
 40
11.0
 40
11.0
 40
11.0
 40
12.0
 40
12.0
 40
12.0
 40
12.0
 10
2842.568453503782
 20
2919.900896949479
 30
0.0
 10
2842.568453503782
 20
2919.900896949479
 30
0.0
 10
2842.570181680866
 20
2919.499959865859
 30
0.0
 10
2842.570181680866
 20
2919.499959865859
 30
0.0
  0
SPLINE
  5
1579
102
{ACAD_REACTORS
330
15D2
102
}
330
1F
100
AcDbEntity
  8
0
 62
     8
370
    13
100
AcDbSpline
210
0.0
220
0.0
230
1.0
 70
     8
 71
     3
 72
     8
 73
     4
 74
     0
 42
0.0000000001
 43
0.0000000001
 40
10.0
 40
10.0
 40
10.0
 40
10.0
 40
11.0
 40
11.0
 40
11.0
 40
11.0
 10
2842.869156316496
 20
2920.204192027821
 30
0.0
 10
2842.703251316375
 20
2920.204192027821
 30
0.0
 10
2842.568453503782
 20
2920.069394215225
 30
0.0
 10
2842.568453503782
 20
2919.900896949479
 30
0.0
  0
SPLINE
  5
157A
102
{ACAD_REACTORS
330
15D2
102
}
330
1F
100
AcDbEntity
  8
0
 62
     8
370
    13
100
AcDbSpline
210
0.0
220
0.0
230
1.0
 70
    24
 71
     3
 72
     8
 73
     4
 74
     0
 42
0.0000000001
 43
0.0000000001
 40
9.0
 40
9.0
 40
9.0
 40
9.0
 40
10.0
 40
10.0
 40
10.0
 40
10.0
 10
2844.073695744441
 20
2920.204192027821
 30
0.0
 10
2844.073695744441
 20
2920.204192027821
 30
0.0
 10
2842.869156316496
 20
2920.204192027821
 30
0.0
 10
2842.869156316496
 20
2920.204192027821
 30
0.0
  0
SPLINE
  5
157B
102
{ACAD_REACTORS
330
15D2
102
}
330
1F
100
AcDbEntity
  8
0
 62
     8
370
    13
100
AcDbSpline
210
0.0
220
0.0
230
1.0
 70
    24
 71
     3
 72
     8
 73
     4
 74
     0
 42
0.0000000001
 43
0.0000000001
 40
7.0
 40
7.0
 40
7.0
 40
7.0
 40
8.0
 40
8.0
 40
8.0
 40
8.0
 10
2836.701292301652
 20
2921.702521560146
 30
0.0
 10
2836.701292301652
 20
2921.702521560146
 30
0.0
 10
2844.071967567358
 20
2921.710298357028
 30
0.0
 10
2844.071967567358
 20
2921.710298357028
 30
0.0
  0
SPLINE
  5
157C
102
{ACAD_REACTORS
330
15D2
102
}
330
1F
100
AcDbEntity
  8
0
 62
     8
370
    13
100
AcDbSpline
210
0.0
220
0.0
230
1.0
 70
    24
 71
     3
 72
     8
 73
     4
 74
     0
 42
0.0000000001
 43
0.0000000001
 40
6.0
 40
6.0
 40
6.0
 40
6.0
 40
7.0
 40
7.0
 40
7.0
 40
7.0
 10
2836.703020478734
 20
2920.196415230943
 30
0.0
 10
2836.703020478734
 20
2920.196415230943
 30
0.0
 10
2836.701292301652
 20
2921.702521560146
 30
0.0
 10
2836.701292301652
 20
2921.702521560146
 30
0.0
  0
SPLINE
  5
157D
102
{ACAD_REACTORS
330
15D2
102
}
330
1F
100
AcDbEntity
  8
0
 62
     8
370
    13
100
AcDbSpline
210
0.0
220
0.0
230
1.0
 70
    24
 71
     3
 72
     8
 73
     4
 74
     0
 42
0.0000000001
 43
0.0000000001
 40
5.0
 40
5.0
 40
5.0
 40
5.0
 40
6.0
 40
6.0
 40
6.0
 40
6.0
 10
2837.905831729597
 20
2920.198143408023
 30
0.0
 10
2837.905831729597
 20
2920.198143408023
 30
0.0
 10
2836.703020478734
 20
2920.196415230943
 30
0.0
 10
2836.703020478734
 20
2920.196415230943
 30
0.0
  0
SPLINE
  5
157E
102
{ACAD_REACTORS
330
15D2
102
}
330
1F
100
AcDbEntity
  8
0
 62
     8
370
    13
100
AcDbSpline
210
0.0
220
0.0
230
1.0
 70
     8
 71
     3
 72
     8
 73
     4
 74
     0
 42
0.0000000001
 43
0.0000000001
 40
4.0
 40
4.0
 40
4.0
 40
4.0
 40
5.0
 40
5.0
 40
5.0
 40
5.0
 10
2838.206534542321
 20
2919.897440595311
 30
0.0
 10
2838.206534542321
 20
2920.06420968397
 30
0.0
 10
2838.071736729719
 20
2920.198143408023
 30
0.0
 10
2837.905831729597
 20
2920.198143408023
 30
0.0
  0
SPLINE
  5
157F
102
{ACAD_REACTORS
330
15D2
102
}
330
1F
100
AcDbEntity
  8
0
 62
     8
370
    13
100
AcDbSpline
210
0.0
220
0.0
230
1.0
 70
    24
 71
     3
 72
     8
 73
     4
 74
     0
 42
0.0000000001
 43
0.0000000001
 40
3.0
 40
3.0
 40
3.0
 40
3.0
 40
4.0
 40
4.0
 40
4.0
 40
4.0
 10
2838.206534542321
 20
2919.498231688772
 30
0.0
 10
2838.206534542321
 20
2919.498231688772
 30
0.0
 10
2838.206534542321
 20
2919.897440595311
 30
0.0
 10
2838.206534542321
 20
2919.897440595311
 30
0.0
  0
SPLINE
  5
1580
102
{ACAD_REACTORS
330
15D2
102
}
330
1F
100
AcDbEntity
  8
0
 62
     8
370
    13
100
AcDbSpline
210
0.0
220
0.0
230
1.0
 70
     8
 71
     3
 72
     8
 73
     4
 74
     0
 42
0.0000000001
 43
0.0000000001
 40
2.0
 40
2.0
 40
2.0
 40
2.0
 40
3.0
 40
3.0
 40
3.0
 40
3.0
 10
2837.705363187792
 20
2918.993603980076
 30
0.0
 10
2837.983599698405
 20
2918.993603980076
 30
0.0
 10
2838.208262719402
 20
2919.219995178154
 30
0.0
 10
2838.206534542321
 20
2919.498231688772
 30
0.0
  0
SPLINE
  5
1581
102
{ACAD_REACTORS
330
15D2
102
}
330
1F
100
AcDbEntity
  8
0
 62
     8
370
    13
100
AcDbSpline
210
0.0
220
0.0
230
1.0
 70
    24
 71
     3
 72
     8
 73
     4
 74
     0
 42
0.0000000001
 43
0.0000000001
 40
1.0
 40
1.0
 40
1.0
 40
1.0
 40
2.0
 40
2.0
 40
2.0
 40
2.0
 10
2836.701292301652
 20
2918.993603980076
 30
0.0
 10
2836.701292301652
 20
2918.993603980076
 30
0.0
 10
2837.705363187792
 20
2918.993603980076
 30
0.0
 10
2837.705363187792
 20
2918.993603980076
 30
0.0
  0
SPLINE
  5
1582
102
{ACAD_REACTORS
330
15D2
102
}
330
1F
100
AcDbEntity
  8
0
 62
     8
370
    13
100
AcDbSpline
210
0.0
220
0.0
230
1.0
 70
     8
 71
     3
 72
     8
 73
     4
 74
     0
 42
0.0000000001
 43
0.0000000001
 40
0.0
 40
0.0
 40
0.0
 40
0.0
 40
1.0
 40
1.0
 40
1.0
 40
1.0
 10
2835.500209227874
 20
2920.198143408023
 30
0.0
 10
2835.498481050791
 20
2919.534523407548
 30
0.0
 10
2836.037672301177
 20
2918.993603980076
 30
0.0
 10
2836.701292301652
 20
2918.993603980076
 30
0.0
  0
SPLINE
  5
1583
102
{ACAD_REACTORS
330
15D2
102
}
330
1F
100
AcDbEntity
  8
0
 62
     8
370
    13
100
AcDbSpline
210
0.0
220
0.0
230
1.0
 70
    24
 71
     3
 72
     8
 73
     4
 74
     0
 42
0.0000000001
 43
0.0000000001
 40
8.0
 40
8.0
 40
8.0
 40
8.0
 40
9.0
 40
9.0
 40
9.0
 40
9.0
 10
2844.071967567358
 20
2921.710298357028
 30
0.0
 10
2844.071967567358
 20
2921.710298357028
 30
0.0
 10
2844.073695744441
 20
2920.204192027821
 30
0.0
 10
2844.073695744441
 20
2920.204192027821
 30
0.0
  0
SPLINE
  5
1584
102
{ACAD_REACTORS
330
15D2
102
}
330
1F
100
AcDbEntity
  8
0
 62
     8
370
    13
100
AcDbSpline
210
0.0
220
0.0
230
1.0
 70
     8
 71
     3
 72
     8
 73
     4
 74
     0
 42
0.0000000001
 43
0.0000000001
 40
14.0
 40
14.0
 40
14.0
 40
14.0
 40
15.0
 40
15.0
 40
15.0
 40
15.0
 10
2844.213678088296
 20
2918.998788511331
 30
0.0
 10
2844.737315744917
 20
2918.998788511331
 30
0.0
 10
2845.172816370233
 20
2919.402317860578
 30
0.0
 10
2845.214292620262
 20
2919.924227340123
 30
0.0
  0
SPLINE
  5
1585
102
{ACAD_REACTORS
330
15D2
102
}
330
1F
100
AcDbEntity
  8
0
 62
     8
370
    13
100
AcDbSpline
210
0.0
220
0.0
230
1.0
 70
    24
 71
     3
 72
     8
 73
     4
 74
     0
 42
0.0000000001
 43
0.0000000001
 40
15.0
 40
15.0
 40
15.0
 40
15.0
 40
16.0
 40
16.0
 40
16.0
 40
16.0
 10
2845.214292620262
 20
2919.924227340123
 30
0.0
 10
2845.214292620262
 20
2919.924227340123
 30
0.0
 10
2845.480431891291
 20
2919.924227340123
 30
0.0
 10
2845.480431891291
 20
2919.924227340123
 30
0.0
  0
SPLINE
  5
1586
102
{ACAD_REACTORS
330
15D2
102
}
330
1F
100
AcDbEntity
  8
0
 62
     8
370
    13
100
AcDbSpline
210
0.0
220
0.0
230
1.0
 70
     8
 71
     3
 72
     8
 73
     4
 74
     0
 42
0.0000000001
 43
0.0000000001
 40
16.0
 40
16.0
 40
16.0
 40
16.0
 40
17.0
 40
17.0
 40
17.0
 40
17.0
 10
2845.480431891291
 20
2919.924227340123
 30
0.0
 10
2845.753483870648
 20
2919.924227340123
 30
0.0
 10
2845.978146891645
 20
2920.14716218403
 30
0.0
 10
2845.978146891645
 20
2920.425398694644
 30
0.0
  0
SPLINE
  5
1587
102
{ACAD_REACTORS
330
15D2
102
}
330
1F
100
AcDbEntity
  8
0
 62
     8
370
    13
100
AcDbSpline
210
0.0
220
0.0
230
1.0
 70
    24
 71
     3
 72
     8
 73
     4
 74
     0
 42
0.0000000001
 43
0.0000000001
 40
17.0
 40
17.0
 40
17.0
 40
17.0
 40
18.0
 40
18.0
 40
18.0
 40
18.0
 10
2845.978146891645
 20
2920.425398694644
 30
0.0
 10
2845.978146891645
 20
2920.425398694644
 30
0.0
 10
2845.978146891645
 20
2923.136044451799
 30
0.0
 10
2845.978146891645
 20
2923.136044451799
 30
0.0
  0
SPLINE
  5
1588
102
{ACAD_REACTORS
330
15D2
102
}
330
1F
100
AcDbEntity
  8
0
 62
     8
370
    13
100
AcDbSpline
210
0.0
220
0.0
230
1.0
 70
     8
 71
     3
 72
     8
 73
     4
 74
     0
 42
0.0000000001
 43
0.0000000001
 40
18.0
 40
18.0
 40
18.0
 40
18.0
 40
19.0
 40
19.0
 40
19.0
 40
19.0
 10
2845.978146891645
 20
2923.136044451799
 30
0.0
 10
2845.978146891645
 20
2923.394406925944
 30
0.0
 10
2845.788047412342
 20
2923.608700884431
 30
0.0
 10
2845.530549026739
 20
2923.63548762924
 30
0.0
  0
SPLINE
  5
1589
102
{ACAD_REACTORS
330
15D2
102
}
330
1F
100
AcDbEntity
  8
0
 62
     8
370
    13
100
AcDbSpline
210
0.0
220
0.0
230
1.0
 70
    24
 71
     3
 72
     8
 73
     4
 74
     0
 42
0.0000000001
 43
0.0000000001
 40
21.0
 40
21.0
 40
21.0
 40
21.0
 40
22.0
 40
22.0
 40
22.0
 40
22.0
 10
2838.757823032299
 20
2929.979625706711
 30
0.0
 10
2838.757823032299
 20
2929.979625706711
 30
0.0
 10
2838.757823032299
 20
2953.916451686904
 30
0.0
 10
2838.757823032299
 20
2953.916451686904
 30
0.0
  0
SPLINE
  5
158A
102
{ACAD_REACTORS
330
15D2
102
}
330
1F
100
AcDbEntity
  8
0
 62
     8
370
    13
100
AcDbSpline
210
0.0
220
0.0
230
1.0
 70
     8
 71
     3
 72
     8
 73
     4
 74
     0
 42
0.0000000001
 43
0.0000000001
 40
104.0
 40
104.0
 40
104.0
 40
104.0
 40
105.0
 40
105.0
 40
105.0
 40
105.0
 10
2872.19950641516
 20
2962.0
 30
0.0
 10
2872.365411415273
 20
2962.0
 30
0.0
 10
2872.500209227874
 20
2961.866066275943
 30
0.0
 10
2872.500209227874
 20
2961.699297187281
 30
0.0
  0
SPLINE
  5
158B
102
{ACAD_REACTORS
330
15D2
102
}
330
1F
100
AcDbEntity
  8
0
 62
     8
370
    13
100
AcDbSpline
210
0.0
220
0.0
230
1.0
 70
    24
 71
     3
 72
     8
 73
     4
 74
     0
 42
0.0000000001
 43
0.0000000001
 40
103.0
 40
103.0
 40
103.0
 40
103.0
 40
104.0
 40
104.0
 40
104.0
 40
104.0
 10
2871.798569331539
 20
2962.0
 30
0.0
 10
2871.798569331539
 20
2962.0
 30
0.0
 10
2872.19950641516
 20
2962.0
 30
0.0
 10
2872.19950641516
 20
2962.0
 30
0.0
  0
SPLINE
  5
158C
102
{ACAD_REACTORS
330
15D2
102
}
330
1F
100
AcDbEntity
  8
0
 62
     8
370
    13
100
AcDbSpline
210
0.0
220
0.0
230
1.0
 70
     8
 71
     3
 72
     8
 73
     4
 74
     0
 42
0.0000000001
 43
0.0000000001
 40
102.0
 40
102.0
 40
102.0
 40
102.0
 40
103.0
 40
103.0
 40
103.0
 40
103.0
 10
2871.497866518818
 20
2961.699297187281
 30
0.0
 10
2871.497866518818
 20
2961.866066275943
 30
0.0
 10
2871.63266433142
 20
2962.0
 30
0.0
 10
2871.798569331539
 20
2962.0
 30
0.0
  0
SPLINE
  5
158D
102
{ACAD_REACTORS
330
15D2
102
}
330
1F
100
AcDbEntity
  8
0
 62
     8
370
    13
100
AcDbSpline
210
0.0
220
0.0
230
1.0
 70
    24
 71
     3
 72
     8
 73
     4
 74
     0
 42
0.0000000001
 43
0.0000000001
 40
101.0
 40
101.0
 40
101.0
 40
101.0
 40
102.0
 40
102.0
 40
102.0
 40
102.0
 10
2871.497866518818
 20
2958.961864685319
 30
0.0
 10
2871.497866518818
 20
2958.961864685319
 30
0.0
 10
2871.497866518818
 20
2961.699297187281
 30
0.0
 10
2871.497866518818
 20
2961.699297187281
 30
0.0
  0
SPLINE
  5
158E
102
{ACAD_REACTORS
330
15D2
102
}
330
1F
100
AcDbEntity
  8
0
 62
     8
370
    13
100
AcDbSpline
210
0.0
220
0.0
230
1.0
 70
    24
 71
     3
 72
     8
 73
     4
 74
     0
 42
0.0000000001
 43
0.0000000001
 40
100.0
 40
100.0
 40
100.0
 40
100.0
 40
101.0
 40
101.0
 40
101.0
 40
101.0
 10
2865.433693129055
 20
2958.961864685319
 30
0.0
 10
2865.433693129055
 20
2958.961864685319
 30
0.0
 10
2871.497866518818
 20
2958.961864685319
 30
0.0
 10
2871.497866518818
 20
2958.961864685319
 30
0.0
  0
SPLINE
  5
158F
102
{ACAD_REACTORS
330
15D2
102
}
330
1F
100
AcDbEntity
  8
0
 62
     8
370
    13
100
AcDbSpline
210
0.0
220
0.0
230
1.0
 70
    24
 71
     3
 72
     8
 73
     4
 74
     0
 42
0.0000000001
 43
0.0000000001
 40
99.0
 40
99.0
 40
99.0
 40
99.0
 40
100.0
 40
100.0
 40
100.0
 40
100.0
 10
2866.805865734203
 20
2961.710530338332
 30
0.0
 10
2866.805865734203
 20
2961.710530338332
 30
0.0
 10
2865.433693129055
 20
2958.961864685319
 30
0.0
 10
2865.433693129055
 20
2958.961864685319
 30
0.0
  0
SPLINE
  5
1590
102
{ACAD_REACTORS
330
15D2
102
}
330
1F
100
AcDbEntity
  8
0
 62
     8
370
    13
100
AcDbSpline
210
0.0
220
0.0
230
1.0
 70
    24
 71
     3
 72
     8
 73
     4
 74
     0
 42
0.0000000001
 43
0.0000000001
 40
98.0
 40
98.0
 40
98.0
 40
98.0
 40
99.0
 40
99.0
 40
99.0
 40
99.0
 10
2866.828332036305
 20
2961.798667369646
 30
0.0
 10
2866.828332036305
 20
2961.798667369646
 30
0.0
 10
2866.805865734203
 20
2961.710530338332
 30
0.0
 10
2866.805865734203
 20
2961.710530338332
 30
0.0
  0
SPLINE
  5
1591
102
{ACAD_REACTORS
330
15D2
102
}
330
1F
100
AcDbEntity
  8
0
 62
     8
370
    13
100
AcDbSpline
210
0.0
220
0.0
230
1.0
 70
    24
 71
     3
 72
     8
 73
     4
 74
     0
 42
0.0000000001
 43
0.0000000001
 40
97.0
 40
97.0
 40
97.0
 40
97.0
 40
98.0
 40
98.0
 40
98.0
 40
98.0
 10
2866.627863494491
 20
2962.0
 30
0.0
 10
2866.627863494491
 20
2962.0
 30
0.0
 10
2866.828332036305
 20
2961.798667369646
 30
0.0
 10
2866.828332036305
 20
2961.798667369646
 30
0.0
  0
SPLINE
  5
1592
102
{ACAD_REACTORS
330
15D2
102
}
330
1F
100
AcDbEntity
  8
0
 62
     8
370
    13
100
AcDbSpline
210
0.0
220
0.0
230
1.0
 70
     8
 71
     3
 72
     8
 73
     4
 74
     0
 42
0.0000000001
 43
0.0000000001
 40
26.0
 40
26.0
 40
26.0
 40
26.0
 40
27.0
 40
27.0
 40
27.0
 40
27.0
 10
2861.386302396979
 20
2957.950017002301
 30
0.0
 10
2861.386302396979
 20
2958.507354112074
 30
0.0
 10
2860.93352000082
 20
2958.961864685319
 30
0.0
 10
2860.371862448331
 20
2958.961864685319
 30
0.0
  0
SPLINE
  5
1593
102
{ACAD_REACTORS
330
15D2
102
}
330
1F
100
AcDbEntity
  8
0
 62
     8
370
    13
100
AcDbSpline
210
0.0
220
0.0
230
1.0
 70
    24
 71
     3
 72
     8
 73
     4
 74
     0
 42
0.0000000001
 43
0.0000000001
 40
25.0
 40
25.0
 40
25.0
 40
25.0
 40
26.0
 40
26.0
 40
26.0
 40
26.0
 10
2861.386302396979
 20
2956.222704006269
 30
0.0
 10
2861.386302396979
 20
2956.222704006269
 30
0.0
 10
2861.386302396979
 20
2957.950017002301
 30
0.0
 10
2861.386302396979
 20
2957.950017002301
 30
0.0
  0
SPLINE
  5
1594
102
{ACAD_REACTORS
330
15D2
102
}
330
1F
100
AcDbEntity
  8
0
 62
     8
370
    13
100
AcDbSpline
210
0.0
220
0.0
230
1.0
 70
     8
 71
     3
 72
     8
 73
     4
 74
     0
 42
0.0000000001
 43
0.0000000001
 40
24.0
 40
24.0
 40
24.0
 40
24.0
 40
25.0
 40
25.0
 40
25.0
 40
25.0
 10
2861.688733386786
 20
2955.923729370636
 30
0.0
 10
2861.521100209581
 20
2955.923729370636
 30
0.0
 10
2861.386302396979
 20
2956.057663094692
 30
0.0
 10
2861.386302396979
 20
2956.222704006269
 30
0.0
  0
SPLINE
  5
1595
102
{ACAD_REACTORS
330
15D2
102
}
330
1F
100
AcDbEntity
  8
0
 62
     8
370
    13
100
AcDbSpline
210
0.0
220
0.0
230
1.0
 70
    24
 71
     3
 72
     8
 73
     4
 74
     0
 42
0.0000000001
 43
0.0000000001
 40
23.0
 40
23.0
 40
23.0
 40
23.0
 40
24.0
 40
24.0
 40
24.0
 40
24.0
 10
2867.234453651182
 20
2955.923729370636
 30
0.0
 10
2867.234453651182
 20
2955.923729370636
 30
0.0
 10
2861.688733386786
 20
2955.923729370636
 30
0.0
 10
2861.688733386786
 20
2955.923729370636
 30
0.0
  0
SPLINE
  5
1596
102
{ACAD_REACTORS
330
15D2
102
}
330
1F
100
AcDbEntity
  8
0
 62
     8
370
    13
100
AcDbSpline
210
0.0
220
0.0
230
1.0
 70
    24
 71
     3
 72
     8
 73
     4
 74
     0
 42
0.0000000001
 43
0.0000000001
 40
22.0
 40
22.0
 40
22.0
 40
22.0
 40
23.0
 40
23.0
 40
23.0
 40
23.0
 10
2869.24259542345
 20
2953.916451686904
 30
0.0
 10
2869.24259542345
 20
2953.916451686904
 30
0.0
 10
2867.234453651182
 20
2955.923729370636
 30
0.0
 10
2867.234453651182
 20
2955.923729370636
 30
0.0
  0
SPLINE
  5
1597
102
{ACAD_REACTORS
330
15D2
102
}
330
1F
100
AcDbEntity
  8
0
 62
     8
370
    13
100
AcDbSpline
210
0.0
220
0.0
230
1.0
 70
    24
 71
     3
 72
     8
 73
     4
 74
     0
 42
0.0000000001
 43
0.0000000001
 40
22.0
 40
22.0
 40
22.0
 40
22.0
 40
23.0
 40
23.0
 40
23.0
 40
23.0
 10
2838.757823032299
 20
2953.916451686904
 30
0.0
 10
2838.757823032299
 20
2953.916451686904
 30
0.0
 10
2840.765964804567
 20
2955.923729370636
 30
0.0
 10
2840.765964804567
 20
2955.923729370636
 30
0.0
  0
SPLINE
  5
1598
102
{ACAD_REACTORS
330
15D2
102
}
330
1F
100
AcDbEntity
  8
0
 62
     8
370
    13
100
AcDbSpline
210
0.0
220
0.0
230
1.0
 70
    24
 71
     3
 72
     8
 73
     4
 74
     0
 42
0.0000000001
 43
0.0000000001
 40
23.0
 40
23.0
 40
23.0
 40
23.0
 40
24.0
 40
24.0
 40
24.0
 40
24.0
 10
2840.765964804567
 20
2955.923729370636
 30
0.0
 10
2840.765964804567
 20
2955.923729370636
 30
0.0
 10
2846.311685068963
 20
2955.923729370636
 30
0.0
 10
2846.311685068963
 20
2955.923729370636
 30
0.0
  0
SPLINE
  5
1599
102
{ACAD_REACTORS
330
15D2
102
}
330
1F
100
AcDbEntity
  8
0
 62
     8
370
    13
100
AcDbSpline
210
0.0
220
0.0
230
1.0
 70
     8
 71
     3
 72
     8
 73
     4
 74
     0
 42
0.0000000001
 43
0.0000000001
 40
24.0
 40
24.0
 40
24.0
 40
24.0
 40
25.0
 40
25.0
 40
25.0
 40
25.0
 10
2846.311685068963
 20
2955.923729370636
 30
0.0
 10
2846.479318246166
 20
2955.923729370636
 30
0.0
 10
2846.614116058768
 20
2956.057663094692
 30
0.0
 10
2846.614116058768
 20
2956.222704006269
 30
0.0
  0
SPLINE
  5
159A
102
{ACAD_REACTORS
330
15D2
102
}
330
1F
100
AcDbEntity
  8
0
 62
     8
370
    13
100
AcDbSpline
210
0.0
220
0.0
230
1.0
 70
    24
 71
     3
 72
     8
 73
     4
 74
     0
 42
0.0000000001
 43
0.0000000001
 40
25.0
 40
25.0
 40
25.0
 40
25.0
 40
26.0
 40
26.0
 40
26.0
 40
26.0
 10
2846.614116058768
 20
2956.222704006269
 30
0.0
 10
2846.614116058768
 20
2956.222704006269
 30
0.0
 10
2846.614116058768
 20
2957.950017002301
 30
0.0
 10
2846.614116058768
 20
2957.950017002301
 30
0.0
  0
SPLINE
  5
159B
102
{ACAD_REACTORS
330
15D2
102
}
330
1F
100
AcDbEntity
  8
0
 62
     8
370
    13
100
AcDbSpline
210
0.0
220
0.0
230
1.0
 70
    24
 71
     3
 72
     8
 73
     4
 74
     0
 42
0.0000000001
 43
0.0000000001
 40
100.0
 40
100.0
 40
100.0
 40
100.0
 40
101.0
 40
101.0
 40
101.0
 40
101.0
 10
2842.566725326692
 20
2958.961864685319
 30
0.0
 10
2842.566725326692
 20
2958.961864685319
 30
0.0
 10
2836.502551936931
 20
2958.961864685319
 30
0.0
 10
2836.502551936931
 20
2958.961864685319
 30
0.0
  0
SPLINE
  5
159C
102
{ACAD_REACTORS
330
15D2
102
}
330
1F
100
AcDbEntity
  8
0
 62
     8
370
    13
100
AcDbSpline
210
0.0
220
0.0
230
1.0
 70
    24
 71
     3
 72
     8
 73
     4
 74
     0
 42
0.0000000001
 43
0.0000000001
 40
101.0
 40
101.0
 40
101.0
 40
101.0
 40
102.0
 40
102.0
 40
102.0
 40
102.0
 10
2836.502551936931
 20
2958.961864685319
 30
0.0
 10
2836.502551936931
 20
2958.961864685319
 30
0.0
 10
2836.502551936931
 20
2961.699297187281
 30
0.0
 10
2836.502551936931
 20
2961.699297187281
 30
0.0
  0
SPLINE
  5
159D
102
{ACAD_REACTORS
330
15D2
102
}
330
1F
100
AcDbEntity
  8
0
 62
     8
370
    13
100
AcDbSpline
210
0.0
220
0.0
230
1.0
 70
     8
 71
     3
 72
     8
 73
     4
 74
     0
 42
0.0000000001
 43
0.0000000001
 40
102.0
 40
102.0
 40
102.0
 40
102.0
 40
103.0
 40
103.0
 40
103.0
 40
103.0
 10
2836.502551936931
 20
2961.699297187281
 30
0.0
 10
2836.502551936931
 20
2961.866066275943
 30
0.0
 10
2836.367754124328
 20
2962.0
 30
0.0
 10
2836.201849124206
 20
2962.0
 30
0.0
  0
SPLINE
  5
159E
102
{ACAD_REACTORS
330
15D2
102
}
330
1F
100
AcDbEntity
  8
0
 62
     8
370
    13
100
AcDbSpline
210
0.0
220
0.0
230
1.0
 70
    24
 71
     3
 72
     8
 73
     4
 74
     0
 42
0.0000000001
 43
0.0000000001
 40
103.0
 40
103.0
 40
103.0
 40
103.0
 40
104.0
 40
104.0
 40
104.0
 40
104.0
 10
2836.201849124206
 20
2962.0
 30
0.0
 10
2836.201849124206
 20
2962.0
 30
0.0
 10
2835.800912040586
 20
2962.0
 30
0.0
 10
2835.800912040586
 20
2962.0
 30
0.0
  0
SPLINE
  5
159F
102
{ACAD_REACTORS
330
15D2
102
}
330
1F
100
AcDbEntity
  8
0
 62
     8
370
    13
100
AcDbSpline
210
0.0
220
0.0
230
1.0
 70
     8
 71
     3
 72
     8
 73
     4
 74
     0
 42
0.0000000001
 43
0.0000000001
 40
104.0
 40
104.0
 40
104.0
 40
104.0
 40
105.0
 40
105.0
 40
105.0
 40
105.0
 10
2835.800912040586
 20
2962.0
 30
0.0
 10
2835.635007040474
 20
2962.0
 30
0.0
 10
2835.500209227874
 20
2961.866066275943
 30
0.0
 10
2835.500209227874
 20
2961.699297187281
 30
0.0
  0
SPLINE
  5
15A0
102
{ACAD_REACTORS
330
15D2
102
}
330
1F
100
AcDbEntity
  8
0
 62
     8
370
    13
100
AcDbSpline
210
0.0
220
0.0
230
1.0
 70
    24
 71
     3
 72
     8
 73
     4
 74
     0
 42
0.0000000001
 43
0.0000000001
 40
99.0
 40
99.0
 40
99.0
 40
99.0
 40
100.0
 40
100.0
 40
100.0
 40
100.0
 10
2841.194552721544
 20
2961.710530338332
 30
0.0
 10
2841.194552721544
 20
2961.710530338332
 30
0.0
 10
2842.566725326692
 20
2958.961864685319
 30
0.0
 10
2842.566725326692
 20
2958.961864685319
 30
0.0
  0
SPLINE
  5
15A1
102
{ACAD_REACTORS
330
15D2
102
}
330
1F
100
AcDbEntity
  8
0
 62
     8
370
    13
100
AcDbSpline
210
0.0
220
0.0
230
1.0
 70
    24
 71
     3
 72
     8
 73
     4
 74
     0
 42
0.0000000001
 43
0.0000000001
 40
97.0
 40
97.0
 40
97.0
 40
97.0
 40
98.0
 40
98.0
 40
98.0
 40
98.0
 10
2841.372554961258
 20
2962.0
 30
0.0
 10
2841.372554961258
 20
2962.0
 30
0.0
 10
2841.172086419442
 20
2961.798667369646
 30
0.0
 10
2841.172086419442
 20
2961.798667369646
 30
0.0
  0
SPLINE
  5
15A2
102
{ACAD_REACTORS
330
15D2
102
}
330
1F
100
AcDbEntity
  8
0
 62
     8
370
    13
100
AcDbSpline
210
0.0
220
0.0
230
1.0
 70
    24
 71
     3
 72
     8
 73
     4
 74
     0
 42
0.0000000001
 43
0.0000000001
 40
98.0
 40
98.0
 40
98.0
 40
98.0
 40
99.0
 40
99.0
 40
99.0
 40
99.0
 10
2841.172086419442
 20
2961.798667369646
 30
0.0
 10
2841.172086419442
 20
2961.798667369646
 30
0.0
 10
2841.194552721544
 20
2961.710530338332
 30
0.0
 10
2841.194552721544
 20
2961.710530338332
 30
0.0
  0
SPLINE
  5
15A3
102
{ACAD_REACTORS
330
15D2
102
}
330
1F
100
AcDbEntity
  8
0
 62
     8
370
    13
100
AcDbSpline
210
0.0
220
0.0
230
1.0
 70
     8
 71
     3
 72
     8
 73
     4
 74
     0
 42
0.0000000001
 43
0.0000000001
 40
26.0
 40
26.0
 40
26.0
 40
26.0
 40
27.0
 40
27.0
 40
27.0
 40
27.0
 10
2846.614116058768
 20
2957.950017002301
 30
0.0
 10
2846.614116058768
 20
2958.507354112074
 30
0.0
 10
2847.066898454927
 20
2958.961864685319
 30
0.0
 10
2847.628556007414
 20
2958.961864685319
 30
0.0
  0
SPLINE
  5
15A4
102
{ACAD_REACTORS
330
15D2
102
}
330
1F
100
AcDbEntity
  8
0
 62
     8
370
    13
100
AcDbSpline
210
0.0
220
0.0
230
1.0
 70
    24
 71
     3
 72
     8
 73
     4
 74
     0
 42
0.0000000001
 43
0.0000000001
 40
96.17283059226195
 40
96.17283059226195
 40
96.17283059226195
 40
96.17283059226195
 40
97.0
 40
97.0
 40
97.0
 40
97.0
 10
2841.372554961258
 20
2962.0
 30
0.0
 10
2847.859908511699
 20
2962.0
 30
0.0
 10
2866.627863494491
 20
2962.0
 30
0.0
 10
2866.627863494491
 20
2962.0
 30
0.0
  0
SPLINE
  5
15A5
102
{ACAD_REACTORS
330
15D2
102
}
330
1F
100
AcDbEntity
  8
0
 62
     8
370
    13
100
AcDbSpline
210
0.0
220
0.0
230
1.0
 70
    24
 71
     3
 72
     8
 73
     4
 74
     0
 42
0.0000000001
 43
0.0000000001
 40
27.0
 40
27.0
 40
27.0
 40
27.0
 40
27.68266881429375
 40
27.68266881429375
 40
27.68266881429375
 40
27.68266881429375
 10
2860.371862448331
 20
2958.961864685319
 30
0.0
 10
2860.371862448331
 20
2958.961864685319
 30
0.0
 10
2852.576181417339
 20
2958.961864685319
 30
0.0
 10
2847.628556007436
 20
2958.961864685319
 30
0.0
  0
ELLIPSE
  5
15EE
102
{ACAD_REACTORS
330
1671
102
}
330
1F
100
AcDbEntity
  8
0
 62
     6
 48
6.0
370
    13
100
AcDbEllipse
 10
752.5999999999998
 20
3712.0
 30
0.0
 11
0.0
 21
-3.0
 31
0.0
210
0.0
220
0.0
230
1.0
 40
0.8666666666666364
 41
3.141592653589793
 42
6.283185307179586
  0
SPLINE
  5
15EF
102
{ACAD_REACTORS
330
1671
102
}
330
1F
100
AcDbEntity
  8
0
 62
     6
 48
6.0
370
    13
100
AcDbSpline
210
0.0
220
0.0
230
1.0
 70
     8
 71
     3
 72
    20
 73
    16
 74
     0
 42
0.0000000001
 43
0.0000000001
 40
3.141592653589792
 40
3.141592653589792
 40
3.141592653589792
 40
3.141592653589792
 40
3.515772299437363
 40
3.515772299437363
 40
4.012466711112016
 40
4.012466711112016
 40
4.509161122786667
 40
4.509161122786667
 40
5.00585553446132
 40
5.00585553446132
 40
5.502549946135971
 40
5.502549946135971
 40
5.999244357810622
 40
5.999244357810622
 40
6.283185307179585
 40
6.283185307179585
 40
6.283185307179585
 40
6.283185307179585
 10
752.5999999999998
 20
3714.399999999999
 30
0.0
 10
752.3620601226407
 20
3714.399999999999
 30
0.0
 10
752.1238321462874
 20
3714.348544572571
 30
0.0
 10
751.596595110564
 20
3714.109657880079
 30
0.0
 10
751.3166112895683
 20
3713.881117187883
 30
0.0
 10
750.875234220693
 20
3713.276381808459
 30
0.0
 10
750.7157521630956
 20
3712.90085855996
 30
0.0
 10
750.5725708028835
 20
3712.099154947523
 30
0.0
 10
750.5893358198532
 20
3711.674598943966
 30
0.0
 10
750.7938286627044
 20
3710.893793001101
 30
0.0
 10
750.9808577782928
 20
3710.539129677867
 30
0.0
 10
751.4628503564395
 20
3709.988256943275
 30
0.0
 10
751.7557471414434
 20
3709.792246382556
 30
0.0
 10
752.238807440242
 20
3709.629589201056
 30
0.0
 10
752.4194426783501
 20
3709.6
 30
0.0
 10
752.5999999999998
 20
3709.6
 30
0.0
  0
LWPOLYLINE
  5
15F1
330
1F
100
AcDbEntity
  8
0
 62
     4
370
    13
100
AcDbPolyline
 90
        8
 70
     1
 43
0.0
 10
754.9999999999995
 20
3717.0
 10
1653.000000000001
 20
3716.999999999837
 10
1654.000000000001
 20
3715.999999999837
 10
1653.999999999999
 20
3707.999999999837
 10
1652.999999999999
 20
3706.999999999837
 10
754.9999999999995
 20
3707.0
 10
753.9999999999995
 20
3708.0
 10
753.9999999999995
 20
3716.0
  0
ARC
  5
15F6
102
{ACAD_REACTORS
330
1671
102
}
330
1F
100
AcDbEntity
  8
0
 62
     6
370
    13
100
AcDbCircle
 10
756.2753484309391
 20
3575.90514593074
 30
0.0
 40
142.7421786436514
100
AcDbArc
 50
86.24129363898159
 51
91.47542394584945
  0
LINE
  5
15F7
102
{ACAD_REACTORS
330
1671
102
}
330
1F
100
AcDbEntity
  8
0
 62
     6
370
    13
100
AcDbLine
 10
762.9500780449193
 20
3717.324527390079
 30
0.0
 11
762.260156813279
 21
3716.282170112494
 31
0.0
  0
ARC
  5
15F8
102
{ACAD_REACTORS
330
1671
102
}
330
1F
100
AcDbEntity
  8
0
 62
     6
370
    13
100
AcDbCircle
 10
756.2753484309391
 20
3848.09485406926
 30
0.0
 40
142.7421786436514
100
AcDbArc
 50
268.5245760541504
 51
273.7587063610183
  0
LINE
  5
15F9
102
{ACAD_REACTORS
330
1671
102
}
330
1F
100
AcDbEntity
  8
0
 62
     6
370
    13
100
AcDbLine
 10
762.9500780449193
 20
3706.67547260992
 30
0.0
 11
762.260156813279
 21
3707.717829887505
 31
0.0
  0
LINE
  5
15FA
102
{ACAD_REACTORS
330
1671
102
}
330
1F
100
AcDbEntity
  8
0
 62
     6
370
    13
100
AcDbLine
 10
762.9500780310113
 20
3706.675472623352
 30
0.0
 11
762.7143987564372
 21
3706.488004863541
 31
0.0
  0
LINE
  5
15FB
102
{ACAD_REACTORS
330
1671
102
}
330
1F
100
AcDbEntity
  8
0
 62
     6
370
    13
100
AcDbLine
 10
762.9500780310113
 20
3717.324527376648
 30
0.0
 11
762.7143987564372
 21
3717.511995136458
 31
0.0
  0
LINE
  5
15FC
102
{ACAD_REACTORS
330
1670
102
}
330
1F
100
AcDbEntity
  8
0
 62
     5
370
    13
100
AcDbLine
 10
786.5788364013801
 20
3726.00127721828
 30
0.0
 11
784.247117987033
 21
3721.001907555608
 31
0.0
  0
LINE
  5
15FD
102
{ACAD_REACTORS
330
1671
102
}
330
1F
100
AcDbEntity
  8
0
 62
     6
370
    13
100
AcDbLine
 10
766.0999999999999
 20
3717.377830869371
 30
0.0
 11
766.0999999999999
 21
3717.841357865569
 31
0.0
  0
ARC
  5
15FE
102
{ACAD_REACTORS
330
1671
102
}
330
1F
100
AcDbEntity
  8
0
 62
     6
370
    13
100
AcDbCircle
 10
765.5999999999998
 20
3717.841357865569
 30
0.0
 40
0.5
100
AcDbArc
 50
0.000000000000007
 51
86.24129363898163
  0
LINE
  5
15FF
102
{ACAD_REACTORS
330
1670
102
}
330
1F
100
AcDbEntity
  8
0
 62
     5
370
    13
100
AcDbLine
 10
841.4211635986244
 20
3726.001277218269
 30
0.0
 11
843.7563274779309
 21
3721.001907555598
 31
0.0
  0
LINE
  5
1600
102
{ACAD_REACTORS
330
1670
102
}
330
1F
100
AcDbEntity
  8
0
 62
     5
370
    13
100
AcDbLine
 10
784.247117987033
 20
3721.001907555608
 30
0.0
 11
843.7563274779309
 21
3721.001907555598
 31
0.0
  0
LINE
  5
1601
102
{ACAD_REACTORS
330
1670
102
}
330
1F
100
AcDbEntity
  8
0
 62
     5
370
    13
100
AcDbLine
 10
841.4211635986244
 20
3726.001277218269
 30
0.0
 11
786.5788364013801
 21
3726.00127721828
 31
0.0
  0
LINE
  5
1602
102
{ACAD_REACTORS
330
1670
102
}
330
1F
100
AcDbEntity
  8
0
 62
     5
370
    13
100
AcDbLine
 10
786.7485255508486
 20
3697.698505272011
 30
0.0
 11
785.9991369211925
 21
3698.44961663415
 31
0.0
  0
LINE
  5
1603
102
{ACAD_REACTORS
330
1670
102
}
330
1F
100
AcDbEntity
  8
0
 62
     5
370
    13
100
AcDbLine
 10
786.7485255508486
 20
3697.698505272011
 30
0.0
 11
786.7485255508486
 21
3695.700135592927
 31
0.0
  0
LINE
  5
1604
102
{ACAD_REACTORS
330
1670
102
}
330
1F
100
AcDbEntity
  8
0
 62
     5
370
    13
100
AcDbLine
 10
787.2481179706205
 20
3695.198820440674
 30
0.0
 11
786.7485255508486
 21
3695.700135592927
 31
0.0
  0
LINE
  5
1605
102
{ACAD_REACTORS
330
1670
102
}
330
1F
100
AcDbEntity
  8
0
 62
     5
370
    13
100
AcDbLine
 10
785.9974141887101
 20
3699.245519040816
 30
0.0
 11
785.9974141887101
 21
3698.447893901662
 31
0.0
  0
LINE
  5
1606
102
{ACAD_REACTORS
330
1670
102
}
330
1F
100
AcDbEntity
  8
0
 62
     5
370
    13
100
AcDbLine
 10
786.6107069522909
 20
3699.245519040815
 30
0.0
 11
786.6107069522909
 21
3697.836323870567
 31
0.0
  0
LINE
  5
1607
102
{ACAD_REACTORS
330
1670
102
}
330
1F
100
AcDbEntity
  8
0
 62
     5
370
    13
100
AcDbLine
 10
785.9991369211925
 20
3698.44961663415
 30
0.0
 11
785.9991369211925
 21
3699.245519040816
 31
0.0
  0
LINE
  5
1608
102
{ACAD_REACTORS
330
1670
102
}
330
1F
100
AcDbEntity
  8
0
 62
     5
370
    13
100
AcDbLine
 10
785.9991369211925
 20
3699.245519040816
 30
0.0
 11
784.2471179870295
 21
3702.999353119031
 31
0.0
  0
LINE
  5
1609
102
{ACAD_REACTORS
330
1670
102
}
330
1F
100
AcDbEntity
  8
0
 62
     5
370
    13
100
AcDbLine
 10
784.2471179870295
 20
3702.999353119031
 30
0.0
 11
784.2471179870313
 21
3706.99867657592
 31
0.0
  0
ARC
  5
160A
102
{ACAD_REACTORS
330
1671
102
}
330
1F
100
AcDbEntity
  8
0
 62
     6
370
    13
100
AcDbCircle
 10
757.3929394021993
 20
3576.191713210985
 30
0.0
 40
141.2421786436514
100
AcDbArc
 50
86.55185588727041
 51
87.74512968719943
  0
ARC
  5
160B
102
{ACAD_REACTORS
330
1671
102
}
330
1F
100
AcDbEntity
  8
0
 62
     6
370
    13
100
AcDbCircle
 10
757.3929394021993
 20
3847.808286789015
 30
0.0
 40
141.2421786436514
100
AcDbArc
 50
272.2548703128005
 51
273.4481441127295
  0
LINE
  5
160C
102
{ACAD_REACTORS
330
1671
102
}
330
1F
100
AcDbEntity
  8
0
 62
     6
370
    13
100
AcDbLine
 10
766.0999999999999
 20
3706.622169130628
 30
0.0
 11
766.0999999999999
 21
3706.158642134431
 31
0.0
  0
ARC
  5
160D
102
{ACAD_REACTORS
330
1671
102
}
330
1F
100
AcDbEntity
  8
0
 62
     6
370
    13
100
AcDbCircle
 10
765.900000000001
 20
3706.622169130628
 30
0.0
 40
0.2
100
AcDbArc
 50
0.000000000000007
 51
93.44814411272963
  0
ARC
  5
160E
102
{ACAD_REACTORS
330
1671
102
}
330
1F
100
AcDbEntity
  8
0
 62
     6
370
    13
100
AcDbCircle
 10
765.5999999999998
 20
3706.158642134431
 30
0.0
 40
0.5
100
AcDbArc
 50
273.7587063610183
 51
0.000000000000007
  0
LINE
  5
160F
102
{ACAD_REACTORS
330
1670
102
}
330
1F
100
AcDbEntity
  8
0
 62
     5
370
    13
100
AcDbLine
 10
841.2549199141098
 20
3697.698505272001
 30
0.0
 11
842.004308543766
 21
3698.44961663414
 31
0.0
  0
LINE
  5
1610
102
{ACAD_REACTORS
330
1670
102
}
330
1F
100
AcDbEntity
  8
0
 62
     5
370
    13
100
AcDbLine
 10
841.2549199141098
 20
3697.698505272001
 30
0.0
 11
841.2549199141098
 21
3695.700135592917
 31
0.0
  0
LINE
  5
1611
102
{ACAD_REACTORS
330
1670
102
}
330
1F
100
AcDbEntity
  8
0
 62
     5
370
    13
100
AcDbLine
 10
840.7518820293731
 20
3695.198820440665
 30
0.0
 11
841.2549199141098
 21
3695.700135592917
 31
0.0
  0
LINE
  5
1612
102
{ACAD_REACTORS
330
1670
102
}
330
1F
100
AcDbEntity
  8
0
 62
     5
370
    13
100
AcDbLine
 10
842.0025858112834
 20
3698.447893901652
 30
0.0
 11
842.0025858112834
 21
3699.245519040806
 31
0.0
  0
LINE
  5
1613
102
{ACAD_REACTORS
330
1670
102
}
330
1F
100
AcDbEntity
  8
0
 62
     5
370
    13
100
AcDbLine
 10
841.3927385126658
 20
3697.836323870557
 30
0.0
 11
841.3927385126658
 21
3699.245519040806
 31
0.0
  0
LINE
  5
1614
102
{ACAD_REACTORS
330
1670
102
}
330
1F
100
AcDbEntity
  8
0
 62
     5
370
    13
100
AcDbLine
 10
842.004308543766
 20
3698.44961663414
 30
0.0
 11
842.004308543766
 21
3699.245519040806
 31
0.0
  0
LINE
  5
1615
102
{ACAD_REACTORS
330
1670
102
}
330
1F
100
AcDbEntity
  8
0
 62
     5
370
    13
100
AcDbLine
 10
842.004308543766
 20
3699.245519040806
 30
0.0
 11
843.7563274779272
 21
3702.999353119019
 31
0.0
  0
LINE
  5
1616
102
{ACAD_REACTORS
330
1670
102
}
330
1F
100
AcDbEntity
  8
0
 62
     5
370
    13
100
AcDbLine
 10
843.7563274779272
 20
3702.999353119019
 30
0.0
 11
843.7563274779289
 21
3706.998676575909
 31
0.0
  0
LINE
  5
1617
102
{ACAD_REACTORS
330
1670
102
}
330
1F
100
AcDbEntity
  8
0
 62
     5
370
    13
100
AcDbLine
 10
840.7518820293731
 20
3695.198820440665
 30
0.0
 11
787.2481179706205
 21
3695.198820440674
 31
0.0
  0
LINE
  5
1618
102
{ACAD_REACTORS
330
1670
102
}
330
1F
100
AcDbEntity
  8
0
 62
     5
370
    13
100
AcDbLine
 10
786.7485255508486
 20
3695.700135592927
 30
0.0
 11
841.2549199141098
 21
3695.700135592917
 31
0.0
  0
LINE
  5
1619
102
{ACAD_REACTORS
330
1670
102
}
330
1F
100
AcDbEntity
  8
0
 62
     5
370
    13
100
AcDbLine
 10
786.7485255508486
 20
3697.698505272011
 30
0.0
 11
841.2549199141098
 21
3697.698505272001
 31
0.0
  0
LINE
  5
161A
102
{ACAD_REACTORS
330
1670
102
}
330
1F
100
AcDbEntity
  8
0
 62
     5
370
    13
100
AcDbLine
 10
785.9991369211925
 20
3698.44961663415
 30
0.0
 11
842.004308543766
 21
3698.44961663414
 31
0.0
  0
LINE
  5
161B
102
{ACAD_REACTORS
330
1670
102
}
330
1F
100
AcDbEntity
  8
0
 62
     5
370
    13
100
AcDbLine
 10
785.9991369211925
 20
3699.245519040816
 30
0.0
 11
842.004308543766
 21
3699.245519040806
 31
0.0
  0
LINE
  5
161C
102
{ACAD_REACTORS
330
1670
102
}
330
1F
100
AcDbEntity
  8
0
 62
     5
370
    13
100
AcDbLine
 10
843.7563274779272
 20
3702.999353119019
 30
0.0
 11
784.2471179870295
 21
3702.999353119031
 31
0.0
  0
LINE
  5
161D
102
{ACAD_REACTORS
330
1670
102
}
330
1F
100
AcDbEntity
  8
0
 62
     5
370
    13
100
AcDbLine
 10
843.7563274779309
 20
3721.001907555598
 30
0.0
 11
843.7563274779309
 21
3716.999999999984
 31
0.0
  0
LINE
  5
161E
102
{ACAD_REACTORS
330
1670
102
}
330
1F
100
AcDbEntity
  8
0
 62
     5
370
    13
100
AcDbLine
 10
784.247117987033
 20
3721.001907555608
 30
0.0
 11
784.247117987033
 21
3716.999999999994
 31
0.0
  0
ARC
  5
161F
102
{ACAD_REACTORS
330
1671
102
}
330
1F
100
AcDbEntity
  8
0
 62
     6
370
    13
100
AcDbCircle
 10
765.900000000001
 20
3717.377830869371
 30
0.0
 40
0.2
100
AcDbArc
 50
266.5518558872704
 51
0.000000000000007
  0
ARC
  5
1620
102
{ACAD_REACTORS
330
1671
102
}
330
1F
100
AcDbEntity
  8
0
 62
     6
370
    13
100
AcDbCircle
 10
757.3929394022102
 20
3576.191713211428
 30
0.0
 40
141.2421786432081
100
AcDbArc
 50
88.42053739529076
 51
90.56506380320946
  0
ARC
  5
1621
102
{ACAD_REACTORS
330
1671
102
}
330
1F
100
AcDbEntity
  8
0
 62
     6
370
    13
100
AcDbCircle
 10
758.8683499792018
 20
3576.172127525578
 30
0.0
 40
141.3921786436514
100
AcDbArc
 50
88.44079706428201
 51
88.96789766323832
  0
LINE
  5
1622
102
{ACAD_REACTORS
330
1671
102
}
330
1F
100
AcDbEntity
  8
0
 62
     6
370
    13
100
AcDbLine
 10
761.2823447461719
 20
3717.374354629406
 30
0.0
 11
761.4151921229599
 21
3717.541366671486
 31
0.0
  0
ARC
  5
1623
102
{ACAD_REACTORS
330
1671
102
}
330
1F
100
AcDbEntity
  8
0
 62
     6
370
    13
100
AcDbCircle
 10
757.3929394022102
 20
3576.191713211428
 30
0.0
 40
141.2421786432081
100
AcDbArc
 50
90.76790578212861
 51
91.37649965166987
  0
ARC
  5
1624
102
{ACAD_REACTORS
330
1671
102
}
330
1F
100
AcDbEntity
  8
0
 62
     6
370
    13
100
AcDbCircle
 10
762.1350739399709
 20
3716.364960660291
 30
0.0
 40
0.1500000000000026
100
AcDbArc
 50
146.4999999999934
 51
326.4999999999938
  0
LINE
  5
1625
102
{ACAD_REACTORS
330
1671
102
}
330
1F
100
AcDbEntity
  8
0
 62
     6
370
    13
100
AcDbLine
 10
755.4999999999995
 20
3717.0
 30
0.0
 11
755.9999999999995
 21
3717.0
 31
0.0
  0
ARC
  5
1626
102
{ACAD_REACTORS
330
1671
102
}
330
1F
100
AcDbEntity
  8
0
 62
     6
370
    13
100
AcDbCircle
 10
757.3929394022102
 20
3847.808286788572
 30
0.0
 40
141.2421786432081
100
AcDbArc
 50
269.4349361967905
 51
271.5794626047092
  0
ARC
  5
1627
102
{ACAD_REACTORS
330
1671
102
}
330
1F
100
AcDbEntity
  8
0
 62
     6
370
    13
100
AcDbCircle
 10
757.3929394022102
 20
3847.808286788572
 30
0.0
 40
141.2421786432081
100
AcDbArc
 50
268.62350034833
 51
269.2320942178714
  0
LINE
  5
1628
102
{ACAD_REACTORS
330
1671
102
}
330
1F
100
AcDbEntity
  8
0
 62
     6
370
    13
100
AcDbLine
 10
755.4999999999995
 20
3707.0
 30
0.0
 11
755.4999999999995
 21
3706.578793380504
 31
0.0
  0
LINE
  5
1629
102
{ACAD_REACTORS
330
1671
102
}
330
1F
100
AcDbEntity
  8
0
 62
     6
370
    13
100
AcDbLine
 10
755.9999999999995
 20
3707.0
 30
0.0
 11
755.9999999999995
 21
3706.572976941134
 31
0.0
  0
LINE
  5
162A
102
{ACAD_REACTORS
330
1671
102
}
330
1F
100
AcDbEntity
  8
0
 62
     6
370
    13
100
AcDbLine
 10
762.7143987564372
 20
3706.488004863541
 30
0.0
 11
762.0099910666608
 21
3707.552248791911
 31
0.0
  0
ARC
  5
162B
102
{ACAD_REACTORS
330
1671
102
}
330
1F
100
AcDbEntity
  8
0
 62
     6
370
    13
100
AcDbCircle
 10
762.1350739399709
 20
3707.635039339708
 30
0.0
 40
0.1500000000000026
100
AcDbArc
 50
33.50000000000621
 51
213.5000000000065
  0
ARC
  5
162C
102
{ACAD_REACTORS
330
1671
102
}
330
1F
100
AcDbEntity
  8
0
 62
     6
370
    13
100
AcDbCircle
 10
758.8683499792018
 20
3847.827872474422
 30
0.0
 40
141.3921786436514
100
AcDbArc
 50
271.0321023367616
 51
271.559202935718
  0
LINE
  5
162D
102
{ACAD_REACTORS
330
1671
102
}
330
1F
100
AcDbEntity
  8
0
 62
     6
370
    13
100
AcDbLine
 10
761.2823447461719
 20
3706.625645370594
 30
0.0
 11
761.4151921229599
 21
3706.458633328513
 31
0.0
  0
LINE
  5
162E
102
{ACAD_REACTORS
330
1671
102
}
330
1F
100
AcDbEntity
  8
0
 62
     6
370
    13
100
AcDbLine
 10
755.4999999999995
 20
3707.0
 30
0.0
 11
755.9999999999995
 21
3707.0
 31
0.0
  0
LINE
  5
162F
102
{ACAD_REACTORS
330
1671
102
}
330
1F
100
AcDbEntity
  8
0
 62
     6
370
    13
100
AcDbLine
 10
762.7143987564372
 20
3717.511995136458
 30
0.0
 11
762.0099910666608
 21
3716.447751208089
 31
0.0
  0
LINE
  5
1630
102
{ACAD_REACTORS
330
1671
102
}
330
1F
100
AcDbEntity
  8
0
 62
     6
370
    13
100
AcDbLine
 10
753.9999999999995
 20
3706.606866859122
 30
0.0
 11
753.9999999999995
 21
3717.393133140878
 31
0.0
  0
LINE
  5
1631
102
{ACAD_REACTORS
330
1671
102
}
330
1F
100
AcDbEntity
  8
0
 62
     6
370
    13
100
AcDbLine
 10
752.5999999999998
 20
3705.399999999999
 30
0.0
 11
752.5999999999998
 21
3718.6
 31
0.0
  0
LINE
  5
1632
102
{ACAD_REACTORS
330
1671
102
}
330
1F
100
AcDbEntity
  8
0
 62
     6
370
    13
100
AcDbLine
 10
755.9999999999995
 20
3717.0
 30
0.0
 11
755.9999999999995
 21
3717.427023058866
 31
0.0
  0
LINE
  5
1633
102
{ACAD_REACTORS
330
1671
102
}
330
1F
100
AcDbEntity
  8
0
 62
     6
370
    13
100
AcDbLine
 10
755.4999999999995
 20
3717.0
 30
0.0
 11
755.4999999999995
 21
3717.421206619496
 31
0.0
  0
LINE
  5
1672
330
1F
100
AcDbEntity
  8
0
370
    13
100
AcDbLine
 10
750.0
 20
3562.0
 30
0.0
 11
750.0
 21
3862.0
 31
0.0
  0
LWPOLYLINE
  5
16FB
102
{ACAD_REACTORS
330
17BD
102
}
330
1F
100
AcDbEntity
  8
0
 62
     3
370
    13
100
AcDbPolyline
 90
        4
 70
     1
 43
0.0
 10
2839.0
 20
2865.5
 10
2838.0
 20
2865.5
 10
2838.0
 20
2894.5
 10
2839.0
 20
2894.5
  0
LWPOLYLINE
  5
16FC
102
{ACAD_REACTORS
330
17BD
102
}
330
1F
100
AcDbEntity
  8
0
 62
     3
370
    13
100
AcDbPolyline
 90
        6
 70
     1
 43
0.0
 10
2835.0
 20
2895.0
 10
2838.0
 20
2895.0
 10
2838.0
 20
2865.0
 10
2835.0
 20
2865.0
 10
2833.0
 20
2867.0
 10
2833.0
 20
2893.0
  0
LWPOLYLINE
  5
16FD
102
{ACAD_REACTORS
330
17BD
102
}
330
1F
100
AcDbEntity
  8
0
 62
     3
370
    13
100
AcDbPolyline
 90
        4
 70
     1
 43
0.0
 10
2850.0
 20
2865.5
 10
2849.0
 20
2865.5
 10
2849.0
 20
2894.5
 10
2850.0
 20
2894.5
  0
LWPOLYLINE
  5
16FE
102
{ACAD_REACTORS
330
17BD
102
}
330
1F
100
AcDbEntity
  8
0
 62
     3
370
    13
100
AcDbPolyline
 90
        6
 70
     1
 43
0.0
 10
2861.0
 20
2865.0
 10
2858.0
 20
2865.0
 10
2858.0
 20
2895.0
 10
2861.0
 20
2895.0
 10
2863.0
 20
2893.0
 10
2863.0
 20
2867.0
  0
ARC
  5
16FF
102
{ACAD_REACTORS
330
179B
102
}
330
1F
100
AcDbEntity
  8
0
 62
     3
370
    13
100
AcDbCircle
 10
904.0
 20
2879.0
 30
0.0
 40
17.0
100
AcDbArc
 50
180.0
 51
0.0
  0
CIRCLE
  5
1700
102
{ACAD_REACTORS
330
179B
102
}
330
1F
100
AcDbEntity
  8
0
 62
     3
370
    13
100
AcDbCircle
 10
904.0
 20
2880.0
 30
0.0
 40
13.0
  0
CIRCLE
  5
1701
102
{ACAD_REACTORS
330
179B
102
}
330
1F
100
AcDbEntity
  8
0
 62
     3
370
    13
100
AcDbCircle
 10
904.0
 20
2880.0
 30
0.0
 40
15.0
  0
LWPOLYLINE
  5
1702
102
{ACAD_REACTORS
330
17BD
102
}
330
1F
100
AcDbEntity
  8
0
 62
     3
370
    13
100
AcDbPolyline
 90
        4
 70
     1
 43
0.0
 10
2858.0
 20
2862.0
 10
2850.0
 20
2862.0
 10
2850.0
 20
2953.0
 10
2858.0
 20
2953.0
  0
CIRCLE
  5
1704
102
{ACAD_REACTORS
330
179B
102
}
330
1F
100
AcDbEntity
  8
0
 62
     3
370
    13
100
AcDbCircle
 10
880.0
 20
2938.5
 30
0.0
 40
14.5
  0
CIRCLE
  5
1705
102
{ACAD_REACTORS
330
179B
102
}
330
1F
100
AcDbEntity
  8
0
 62
     3
370
    13
100
AcDbCircle
 10
880.0
 20
2938.5
 30
0.0
 40
4.0
  0
CIRCLE
  5
1706
102
{ACAD_REACTORS
330
179B
102
}
330
1F
100
AcDbEntity
  8
0
 62
     3
370
    13
100
AcDbCircle
 10
880.0
 20
2938.5
 30
0.0
 40
11.0
  0
ARC
  5
1707
102
{ACAD_REACTORS
330
179B
102
}
330
1F
100
AcDbEntity
  8
0
 62
     3
370
    13
100
AcDbCircle
 10
867.0
 20
2906.54299763745
 30
0.0
 40
20.0
100
AcDbArc
 50
0.0
 51
67.86367524504116
  0
ARC
  5
1709
102
{ACAD_REACTORS
330
179B
102
}
330
1F
100
AcDbEntity
  8
0
 62
     3
370
    13
100
AcDbCircle
 10
941.0
 20
2906.54299763745
 30
0.0
 40
20.0
100
AcDbArc
 50
112.1363247549588
 51
180.0
  0
CIRCLE
  5
170A
102
{ACAD_REACTORS
330
179B
102
}
330
1F
100
AcDbEntity
  8
0
 62
     3
370
    13
100
AcDbCircle
 10
914.0
 20
2880.0
 30
0.0
 40
1.5
  0
LINE
  5
170B
102
{ACAD_REACTORS
330
179B
102
}
330
1F
100
AcDbEntity
  8
0
 62
     3
370
    13
100
AcDbLine
 10
887.0
 20
2906.54299763745
 30
0.0
 11
887.0
 21
2879.0
 31
0.0
  0
LWPOLYLINE
  5
170C
102
{ACAD_REACTORS
330
179B
102
}
330
1F
100
AcDbEntity
  8
0
  6
ACAD_ISO07W100
 62
     3
370
    13
100
AcDbPolyline
 90
        8
 70
     1
 43
0.0
 10
903.8299451904476
 20
2869.997934078122
 10
903.8299451904476
 20
2869.997934078122
 42
0.4142135623730951
 10
910.8299451904477
 20
2876.997934078122
 10
910.8299451904477
 20
2880.997934078122
 42
0.4142135623730951
 10
903.8299451904476
 20
2887.997934078122
 10
903.8299451904476
 20
2887.997934078122
 42
0.4142135623730951
 10
896.8299451904476
 20
2880.997934078122
 10
896.8299451904476
 20
2876.997934078122
 42
0.4142135623730951
  0
CIRCLE
  5
170D
102
{ACAD_REACTORS
330
179B
102
}
330
1F
100
AcDbEntity
  8
0
 62
     3
370
    13
100
AcDbCircle
 10
894.0
 20
2880.0
 30
0.0
 40
1.5
  0
LINE
  5
170E
102
{ACAD_REACTORS
330
179B
102
}
330
1F
100
AcDbEntity
  8
0
 62
     3
370
    13
100
AcDbLine
 10
921.0
 20
2906.54299763745
 30
0.0
 11
921.0
 21
2879.0
 31
0.0
  0
ARC
  5
170F
102
{ACAD_REACTORS
330
179B
102
}
330
1F
100
AcDbEntity
  8
0
 62
     3
370
    13
100
AcDbCircle
 10
904.0
 20
3008.5
 30
0.0
 40
59.5
100
AcDbArc
 50
251.0753555839434
 51
288.9246444160565
  0
CIRCLE
  5
1710
102
{ACAD_REACTORS
330
179B
102
}
330
1F
100
AcDbEntity
  8
0
 62
     3
370
    13
100
AcDbCircle
 10
904.0
 20
2938.5
 30
0.0
 40
3.25
  0
CIRCLE
  5
1711
102
{ACAD_REACTORS
330
179B
102
}
330
1F
100
AcDbEntity
  8
0
 62
     3
370
    13
100
AcDbCircle
 10
928.0
 20
2938.5
 30
0.0
 40
14.5
  0
CIRCLE
  5
1712
102
{ACAD_REACTORS
330
179B
102
}
330
1F
100
AcDbEntity
  8
0
 62
     3
370
    13
100
AcDbCircle
 10
928.0
 20
2938.5
 30
0.0
 40
11.0
  0
CIRCLE
  5
1713
102
{ACAD_REACTORS
330
179B
102
}
330
1F
100
AcDbEntity
  8
0
 62
     3
370
    13
100
AcDbCircle
 10
928.0
 20
2938.5
 30
0.0
 40
4.0
  0
LWPOLYLINE
  5
1714
102
{ACAD_REACTORS
330
1DA8
102
}
330
1F
100
AcDbEntity
  8
0
 62
     3
370
    13
100
AcDbPolyline
 90
        4
 70
     1
 43
0.0
 10
923.2500000000005
 20
3725.999999999975
 10
923.2500000000005
 20
3729.999999999975
 10
932.7500000000005
 20
3729.999999999975
 10
932.7500000000004
 20
3725.999999999975
  0
LWPOLYLINE
  5
1715
102
{ACAD_REACTORS
330
1DA8
102
}
330
1F
100
AcDbEntity
  8
0
 62
     3
370
    13
100
AcDbPolyline
 90
        4
 70
     1
 43
0.0
 10
913.5000000000005
 20
3729.999999999975
 10
914.0000000000005
 20
3735.999999999974
 10
942.0000000000005
 20
3735.999999999974
 10
942.5000000000006
 20
3729.999999999975
  0
LWPOLYLINE
  5
1716
102
{ACAD_REACTORS
330
1DA8
102
}
330
1F
100
AcDbEntity
  8
0
 62
     3
370
    13
100
AcDbPolyline
 90
        4
 70
     1
 43
0.0
 10
865.5000000000004
 20
3725.999999999975
 10
865.5000000000004
 20
3717.999999999974
 10
942.5000000000004
 20
3717.999999999974
 10
942.5000000000004
 20
3725.999999999975
  0
LWPOLYLINE
  5
1717
102
{ACAD_REACTORS
330
1DA8
102
}
330
1F
100
AcDbEntity
  8
0
 62
     3
370
    13
100
AcDbPolyline
 90
        4
 70
     1
 43
0.0
 10
913.5000000000005
 20
3713.999999999974
 10
914.0000000000004
 20
3707.999999999975
 10
942.0000000000005
 20
3707.999999999975
 10
942.5000000000004
 20
3713.999999999974
  0
LWPOLYLINE
  5
1718
102
{ACAD_REACTORS
330
1DA8
102
}
330
1F
100
AcDbEntity
  8
0
 62
     3
370
    13
100
AcDbPolyline
 90
        4
 70
     1
 43
0.0
 10
923.2500000000005
 20
3717.999999999974
 10
923.2500000000005
 20
3713.999999999974
 10
932.7500000000004
 20
3713.999999999974
 10
932.7500000000004
 20
3717.999999999974
  0
LWPOLYLINE
  5
171A
102
{ACAD_REACTORS
330
1DA8
102
}
330
1F
100
AcDbEntity
  8
0
 62
     3
370
    13
100
AcDbPolyline
 90
        4
 70
     1
 43
0.0
 10
895.5000000000005
 20
3716.999999999974
 10
895.5000000000005
 20
3709.999999999974
 10
912.5000000000005
 20
3709.999999999974
 10
912.5000000000005
 20
3716.999999999974
  0
LWPOLYLINE
  5
171B
102
{ACAD_REACTORS
330
1DA8
102
}
330
1F
100
AcDbEntity
  8
0
 62
     3
370
    13
100
AcDbPolyline
 90
        4
 70
     1
 43
0.0
 10
899.0000000000005
 20
3713.999999999974
 10
899.0000000000005
 20
3706.999999999974
 10
909.0000000000005
 20
3706.999999999974
 10
909.0000000000005
 20
3713.999999999974
  0
LWPOLYLINE
  5
171C
102
{ACAD_REACTORS
330
1DA8
102
}
330
1F
100
AcDbEntity
  8
0
 62
     3
370
    13
100
AcDbPolyline
 90
        4
 70
     1
 43
0.0
 10
894.5000000000005
 20
3713.999999999974
 10
894.0000000000004
 20
3707.999999999975
 10
866.0000000000005
 20
3707.999999999975
 10
865.5000000000004
 20
3713.999999999974
  0
LWPOLYLINE
  5
171D
102
{ACAD_REACTORS
330
1DA8
102
}
330
1F
100
AcDbEntity
  8
0
 62
     3
370
    13
100
AcDbPolyline
 90
        4
 70
     1
 43
0.0
 10
897.0000000000004
 20
3725.999999999975
 10
897.0000000000004
 20
3708.999999999974
 10
911.0000000000004
 20
3708.999999999974
 10
911.0000000000004
 20
3725.999999999975
  0
LWPOLYLINE
  5
171E
102
{ACAD_REACTORS
330
1DA8
102
}
330
1F
100
AcDbEntity
  8
0
 62
     3
370
    13
100
AcDbPolyline
 90
        4
 70
     1
 43
0.0
 10
889.5000000000004
 20
3717.999999999974
 10
889.5000000000004
 20
3716.999999999974
 10
918.5000000000004
 20
3716.999999999974
 10
918.5000000000004
 20
3717.999999999974
  0
LWPOLYLINE
  5
171F
102
{ACAD_REACTORS
330
1DA8
102
}
330
1F
100
AcDbEntity
  8
0
 62
     3
370
    13
100
AcDbPolyline
 90
        6
 70
     1
 43
0.0
 10
889.0000000000004
 20
3728.999999999974
 10
889.0000000000004
 20
3725.999999999975
 10
919.0000000000004
 20
3725.999999999975
 10
919.0000000000004
 20
3728.999999999974
 10
917.0000000000005
 20
3730.999999999975
 10
891.0000000000005
 20
3730.999999999975
  0
LWPOLYLINE
  5
1720
102
{ACAD_REACTORS
330
1DA8
102
}
330
1F
100
AcDbEntity
  8
0
 62
     3
370
    13
100
AcDbPolyline
 90
        4
 70
     1
 43
0.0
 10
884.7500000000005
 20
3717.999999999974
 10
884.7500000000005
 20
3713.999999999974
 10
875.2500000000004
 20
3713.999999999974
 10
875.2500000000004
 20
3717.999999999974
  0
LWPOLYLINE
  5
1721
102
{ACAD_REACTORS
330
1DA8
102
}
330
1F
100
AcDbEntity
  8
0
 62
     3
370
    13
100
AcDbPolyline
 90
        4
 70
     1
 43
0.0
 10
894.5000000000005
 20
3729.999999999975
 10
894.0000000000006
 20
3735.999999999974
 10
866.0000000000005
 20
3735.999999999974
 10
865.5000000000006
 20
3729.999999999975
  0
LWPOLYLINE
  5
1722
102
{ACAD_REACTORS
330
1DA8
102
}
330
1F
100
AcDbEntity
  8
0
 62
     3
370
    13
100
AcDbPolyline
 90
        4
 70
     1
 43
0.0
 10
884.7500000000005
 20
3725.999999999975
 10
884.7500000000005
 20
3729.999999999975
 10
875.2500000000006
 20
3729.999999999975
 10
875.2500000000004
 20
3725.999999999975
  0
LWPOLYLINE
  5
1723
102
{ACAD_REACTORS
330
1DA8
102
}
330
1F
100
AcDbEntity
  8
0
 62
     3
370
    13
100
AcDbPolyline
 90
        6
 70
     1
 43
0.0
 10
919.0000000000004
 20
3702.999999999974
 10
919.0000000000004
 20
3705.999999999974
 10
889.0000000000004
 20
3705.999999999974
 10
889.0000000000004
 20
3702.999999999974
 10
891.0000000000005
 20
3700.999999999975
 10
917.0000000000005
 20
3700.999999999975
  0
LWPOLYLINE
  5
1724
102
{ACAD_REACTORS
330
1DA8
102
}
330
1F
100
AcDbEntity
  8
0
 62
     3
370
    13
100
AcDbPolyline
 90
        4
 70
     1
 43
0.0
 10
889.5000000000004
 20
3706.999999999974
 10
889.5000000000004
 20
3705.999999999974
 10
918.5000000000004
 20
3705.999999999974
 10
918.5000000000004
 20
3706.999999999974
  0
LWPOLYLINE
  5
1725
102
{ACAD_REACTORS
330
1DA8
102
}
330
1F
100
AcDbEntity
  8
0
 62
     3
370
    13
100
AcDbPolyline
 90
        4
 70
     1
 43
0.0
 10
911.0000000000004
 20
3705.999999999974
 10
911.0000000000004
 20
3706.999999999974
 10
897.0000000000004
 20
3706.999999999974
 10
897.0000000000004
 20
3705.999999999974
  0
LWPOLYLINE
  5
1727
102
{ACAD_REACTORS
330
17BD
102
}
330
1F
100
AcDbEntity
  8
0
 62
     3
370
    13
100
AcDbPolyline
 90
        4
 70
     1
 43
0.0
 10
2858.0
 20
2873.0
 10
2841.0
 20
2873.0
 10
2841.0
 20
2887.0
 10
2858.0
 20
2887.0
  0
LWPOLYLINE
  5
1728
102
{ACAD_REACTORS
330
17BD
102
}
330
1F
100
AcDbEntity
  8
0
 62
     3
370
    13
100
AcDbPolyline
 90
        4
 70
     1
 43
0.0
 10
2849.0
 20
2871.5
 10
2842.0
 20
2871.5
 10
2842.0
 20
2888.5
 10
2849.0
 20
2888.5
  0
LWPOLYLINE
  5
172B
102
{ACAD_REACTORS
330
17BD
102
}
330
1F
100
AcDbEntity
  8
0
 62
     3
370
    13
100
AcDbPolyline
 90
        4
 70
     1
 43
0.0
 10
2850.0
 20
2933.75
 10
2846.0
 20
2933.75
 10
2846.0
 20
2943.25
 10
2850.0
 20
2943.25
  0
LWPOLYLINE
  5
172C
102
{ACAD_REACTORS
330
17BD
102
}
330
1F
100
AcDbEntity
  8
0
 62
     3
370
    13
100
AcDbPolyline
 90
        4
 70
     1
 43
0.0
 10
2862.0
 20
2924.0
 10
2868.0
 20
2924.5
 10
2868.0
 20
2952.5
 10
2862.0
 20
2953.0
  0
LWPOLYLINE
  5
172D
102
{ACAD_REACTORS
330
17BD
102
}
330
1F
100
AcDbEntity
  8
0
 62
     3
370
    13
100
AcDbPolyline
 90
        4
 70
     1
 43
0.0
 10
2858.0
 20
2933.75
 10
2862.0
 20
2933.75
 10
2862.0
 20
2943.25
 10
2858.0
 20
2943.25
  0
LWPOLYLINE
  5
172E
102
{ACAD_REACTORS
330
17BD
102
}
330
1F
100
AcDbEntity
  8
0
 62
     3
370
    13
100
AcDbPolyline
 90
        4
 70
     1
 43
0.0
 10
2838.0
 20
2887.0
 10
2839.0
 20
2887.0
 10
2839.0
 20
2873.0
 10
2838.0
 20
2873.0
  0
LWPOLYLINE
  5
172F
102
{ACAD_REACTORS
330
17BD
102
}
330
1F
100
AcDbEntity
  8
0
 62
     3
370
    13
100
AcDbPolyline
 90
        4
 70
     1
 43
0.0
 10
2846.0
 20
2875.0
 10
2839.0
 20
2875.0
 10
2839.0
 20
2885.0
 10
2846.0
 20
2885.0
  0
LWPOLYLINE
  5
1730
102
{ACAD_REACTORS
330
17BD
102
}
330
1F
100
AcDbEntity
  8
0
 62
     3
370
    13
100
AcDbPolyline
 90
        4
 70
     1
 43
0.0
 10
2846.0
 20
2924.0
 10
2840.0
 20
2924.5
 10
2840.0
 20
2952.5
 10
2846.0
 20
2953.0
  0
LWPOLYLINE
  5
17AF
330
1F
100
AcDbEntity
  8
0
 62
     8
370
    13
100
AcDbPolyline
 90
        4
 70
     1
 43
0.0
 10
750.0
 20
2919.0
 10
2450.0
 20
2919.0
 10
2450.0
 20
2962.0
 10
750.0
 20
2962.0
  0
ARC
  5
187E
102
{ACAD_REACTORS
330
1890
102
}
330
1F
100
AcDbEntity
  8
0
 62
     3
370
    13
100
AcDbCircle
 10
1467.0
 20
2906.54299763745
 30
0.0
 40
20.0
100
AcDbArc
 50
0.000000000000007
 51
67.86367524504116
  0
LINE
  5
187F
102
{ACAD_REACTORS
330
1890
102
}
330
1F
100
AcDbEntity
  8
0
 62
     3
370
    13
100
AcDbLine
 10
1487.0
 20
2906.54299763745
 30
0.0
 11
1487.0
 21
2879.0
 31
0.0
  0
CIRCLE
  5
1880
102
{ACAD_REACTORS
330
1890
102
}
330
1F
100
AcDbEntity
  8
0
 62
     3
370
    13
100
AcDbCircle
 10
1480.0
 20
2938.5
 30
0.0
 40
4.0
  0
CIRCLE
  5
1881
102
{ACAD_REACTORS
330
1890
102
}
330
1F
100
AcDbEntity
  8
0
 62
     3
370
    13
100
AcDbCircle
 10
1480.0
 20
2938.5
 30
0.0
 40
11.0
  0
CIRCLE
  5
1882
102
{ACAD_REACTORS
330
1890
102
}
330
1F
100
AcDbEntity
  8
0
 62
     3
370
    13
100
AcDbCircle
 10
1480.0
 20
2938.5
 30
0.0
 40
14.5
  0
CIRCLE
  5
1883
102
{ACAD_REACTORS
330
1890
102
}
330
1F
100
AcDbEntity
  8
0
 62
     3
370
    13
100
AcDbCircle
 10
1504.0
 20
2938.5
 30
0.0
 40
3.25
  0
CIRCLE
  5
1884
102
{ACAD_REACTORS
330
1890
102
}
330
1F
100
AcDbEntity
  8
0
 62
     3
370
    13
100
AcDbCircle
 10
1528.0
 20
2938.5
 30
0.0
 40
11.0
  0
CIRCLE
  5
1885
102
{ACAD_REACTORS
330
1890
102
}
330
1F
100
AcDbEntity
  8
0
 62
     3
370
    13
100
AcDbCircle
 10
1528.0
 20
2938.5
 30
0.0
 40
4.0
  0
CIRCLE
  5
1886
102
{ACAD_REACTORS
330
1890
102
}
330
1F
100
AcDbEntity
  8
0
 62
     3
370
    13
100
AcDbCircle
 10
1528.0
 20
2938.5
 30
0.0
 40
14.5
  0
CIRCLE
  5
1887
102
{ACAD_REACTORS
330
1890
102
}
330
1F
100
AcDbEntity
  8
0
 62
     3
370
    13
100
AcDbCircle
 10
1514.0
 20
2880.0
 30
0.0
 40
1.5
  0
LWPOLYLINE
  5
1888
102
{ACAD_REACTORS
330
1890
102
}
330
1F
100
AcDbEntity
  8
0
  6
ACAD_ISO07W100
 62
     3
370
    13
100
AcDbPolyline
 90
        8
 70
     1
 43
0.0
 10
1504.170054809552
 20
2869.997934078122
 10
1504.170054809552
 20
2869.997934078122
 42
-0.4142135623730951
 10
1497.170054809552
 20
2876.997934078122
 10
1497.170054809552
 20
2880.997934078122
 42
-0.4142135623730951
 10
1504.170054809552
 20
2887.997934078122
 10
1504.170054809552
 20
2887.997934078122
 42
-0.4142135623730951
 10
1511.170054809552
 20
2880.997934078122
 10
1511.170054809552
 20
2876.997934078122
 42
-0.4142135623730951
  0
LINE
  5
1889
102
{ACAD_REACTORS
330
1890
102
}
330
1F
100
AcDbEntity
  8
0
 62
     3
370
    13
100
AcDbLine
 10
1521.0
 20
2906.54299763745
 30
0.0
 11
1521.0
 21
2879.0
 31
0.0
  0
CIRCLE
  5
188A
102
{ACAD_REACTORS
330
1890
102
}
330
1F
100
AcDbEntity
  8
0
 62
     3
370
    13
100
AcDbCircle
 10
1494.0
 20
2880.0
 30
0.0
 40
1.5
  0
ARC
  5
188B
102
{ACAD_REACTORS
330
1890
102
}
330
1F
100
AcDbEntity
  8
0
 62
     3
370
    13
100
AcDbCircle
 10
1541.0
 20
2906.54299763745
 30
0.0
 40
20.0
100
AcDbArc
 50
112.1363247549588
 51
180.0
  0
CIRCLE
  5
188C
102
{ACAD_REACTORS
330
1890
102
}
330
1F
100
AcDbEntity
  8
0
 62
     3
370
    13
100
AcDbCircle
 10
1504.0
 20
2880.0
 30
0.0
 40
15.0
  0
CIRCLE
  5
188D
102
{ACAD_REACTORS
330
1890
102
}
330
1F
100
AcDbEntity
  8
0
 62
     3
370
    13
100
AcDbCircle
 10
1504.0
 20
2880.0
 30
0.0
 40
13.0
  0
ARC
  5
188E
102
{ACAD_REACTORS
330
1890
102
}
330
1F
100
AcDbEntity
  8
0
 62
     3
370
    13
100
AcDbCircle
 10
1504.0
 20
2879.0
 30
0.0
 40
17.0
100
AcDbArc
 50
180.0
 51
0.000000000000007
  0
ARC
  5
188F
102
{ACAD_REACTORS
330
1890
102
}
330
1F
100
AcDbEntity
  8
0
 62
     3
370
    13
100
AcDbCircle
 10
1504.0
 20
3008.5
 30
0.0
 40
59.5
100
AcDbArc
 50
251.0753555839434
 51
288.9246444160565
  0
LINE
  5
18A5
330
1F
100
AcDbEntity
  8
0
370
    13
100
AcDbLine
 10
2872.500209227874
 20
2962.0
 30
0.0
 11
2872.500209227874
 21
705.0
 31
0.0
  0
MTEXT
  5
18B2
330
1F
100
AcDbEntity
  8
文字
370
    13
100
AcDbMText
 10
3865.628811799965
 20
236.0606137395089
 30
0.0
 40
37.5
 41
1084.3712
 71
     1
 72
     5
  1
片引き戸　ストッパー仕様
 73
     1
 44
1.0
1001
ACAD
1000
MTEXTBEGIN
1070
    73
1070
     1
1070
    44
1040
1.0
1070
    74
1070
     0
1000
MTEXTEND
  0
LINE
  5
1C7A
102
{ACAD_REACTORS
330
1CE0
102
}
330
1F
100
AcDbEntity
  8
0
 62
    30
370
    13
100
AcDbLine
 10
804.4999999999999
 20
2952.5
 30
0.0
 11
807.4999999999999
 21
2952.5
 31
0.0
  0
LWPOLYLINE
  5
1C7B
102
{ACAD_REACTORS
330
1CE0
102
}
330
1F
100
AcDbEntity
  8
0
 62
    30
370
    13
100
AcDbPolyline
 90
        8
 70
     0
 43
0.0
 10
851.5
 20
2924.5
 10
854.4999999999999
 20
2924.5
 10
854.4999999999999
 20
2944.5
 42
0.4142135623730951
 10
850.5
 20
2948.5
 10
808.5
 20
2948.5
 42
0.4142135623730951
 10
804.4999999999999
 20
2944.5
 10
804.4999999999999
 20
2924.5
 10
807.4999999999999
 20
2924.5
  0
LINE
  5
1C7C
102
{ACAD_REACTORS
330
1CE0
102
}
330
1F
100
AcDbEntity
  8
0
 62
    30
370
    13
100
AcDbLine
 10
825.4336270247893
 20
2949.5
 30
0.0
 11
805.4999999999999
 21
2949.5
 31
0.0
  0
LINE
  5
1C7D
102
{ACAD_REACTORS
330
1CE0
102
}
330
1F
100
AcDbEntity
  8
0
 62
    30
370
    13
100
AcDbLine
 10
805.4999999999999
 20
2948.5
 30
0.0
 11
825.5
 21
2948.5
 31
0.0
  0
LINE
  5
1C7E
102
{ACAD_REACTORS
330
1CE0
102
}
330
1F
100
AcDbEntity
  8
0
 62
    30
370
    13
100
AcDbLine
 10
805.4999999999999
 20
2949.5
 30
0.0
 11
805.4999999999999
 21
2948.5
 31
0.0
  0
LINE
  5
1C7F
102
{ACAD_REACTORS
330
1CE0
102
}
330
1F
100
AcDbEntity
  8
0
 62
    30
370
    13
100
AcDbLine
 10
804.4999999999999
 20
2944.5
 30
0.0
 11
804.4999999999999
 21
2952.5
 31
0.0
  0
LINE
  5
1C80
102
{ACAD_REACTORS
330
1CE0
102
}
330
1F
100
AcDbEntity
  8
0
 62
    30
370
    13
100
AcDbLine
 10
870.5978607206613
 20
2953.713727881261
 30
0.0
 11
880.5614328593506
 21
2951.539508426574
 31
0.0
  0
LINE
  5
1C81
102
{ACAD_REACTORS
330
1CE0
102
}
330
1F
100
AcDbEntity
  8
0
 62
    30
370
    13
100
AcDbLine
 10
870.6484015598041
 20
2954.726231430293
 30
0.0
 11
880.4394133846383
 21
2952.589667545946
 31
0.0
  0
LINE
  5
1C82
102
{ACAD_REACTORS
330
1CE0
102
}
330
1F
100
AcDbEntity
  8
0
 62
    30
370
    13
100
AcDbLine
 10
880.5614328593506
 20
2951.539508426574
 30
0.0
 11
892.6643196398512
 21
2957.329165720265
 31
0.0
  0
LINE
  5
1C83
102
{ACAD_REACTORS
330
1CE0
102
}
330
1F
100
AcDbEntity
  8
0
 62
    30
370
    13
100
AcDbLine
 10
880.4394133846383
 20
2952.589667545946
 30
0.0
 11
892.2327840640136
 21
2958.231261639105
 31
0.0
  0
LWPOLYLINE
  5
1C84
102
{ACAD_REACTORS
330
1CE0
102
}
330
1F
100
AcDbEntity
  8
0
 62
    30
370
    13
100
AcDbPolyline
 90
        6
 70
     0
 43
0.0
 10
844.5
 20
2951.587626275145
 10
844.5
 20
2954.9
 10
843.9
 20
2955.5
 10
839.1
 20
2955.5
 10
838.4999999999999
 20
2954.9
 10
838.4999999999999
 20
2950.893971037675
  0
ARC
  5
1C85
102
{ACAD_REACTORS
330
1CE0
102
}
330
1F
100
AcDbEntity
  8
0
 62
    30
370
    13
100
AcDbCircle
 10
830.8310875842154
 20
2953.332963611579
 30
0.0
 40
1.66703638842048
100
AcDbArc
 50
29.99999999999729
 51
150.0000000000027
  0
ARC
  5
1C86
102
{ACAD_REACTORS
330
1CE0
102
}
330
1F
100
AcDbEntity
  8
0
 62
    30
370
    13
100
AcDbCircle
 10
822.1689124157844
 20
2953.332963611579
 30
0.0
 40
1.66703638842048
100
AcDbArc
 50
29.99999999999729
 51
150.0000000000027
  0
LINE
  5
1C87
102
{ACAD_REACTORS
330
1CE0
102
}
330
1F
100
AcDbEntity
  8
0
 62
    30
370
    13
100
AcDbLine
 10
822.1689124157844
 20
2955.0
 30
0.0
 11
830.8310875842154
 21
2955.0
 31
0.0
  0
ARC
  5
1C88
102
{ACAD_REACTORS
330
1CE0
102
}
330
1F
100
AcDbEntity
  8
0
 62
    30
370
    13
100
AcDbCircle
 10
826.5
 20
2949.582131737633
 30
0.0
 40
5.417868262366598
100
AcDbArc
 50
57.79577249602661
 51
122.2042275039733
  0
LWPOLYLINE
  5
1C89
102
{ACAD_REACTORS
330
1CE0
102
}
330
1F
100
AcDbEntity
  8
0
 62
    30
370
    13
100
AcDbPolyline
 90
        4
 70
     1
 43
0.0
 10
854.4999999999999
 20
2932.5
 10
865.4999999999999
 20
2932.5
 10
865.4999999999999
 20
2944.5
 10
854.4999999999999
 20
2944.5
  0
LWPOLYLINE
  5
1C8A
102
{ACAD_REACTORS
330
1CE0
102
}
330
1F
100
AcDbEntity
  8
0
 62
    30
370
    13
100
AcDbPolyline
 90
        2
 70
     0
 43
0.0
 10
838.4999999999999
 20
2949.887310474939
 10
838.4999999999999
 20
2948.5
  0
LWPOLYLINE
  5
1C8B
102
{ACAD_REACTORS
330
1CE0
102
}
330
1F
100
AcDbEntity
  8
0
 62
    30
370
    13
100
AcDbPolyline
 90
        2
 70
     0
 43
0.0
 10
829.4999999999999
 20
2948.5
 10
829.4999999999999
 20
2948.846827618735
  0
LWPOLYLINE
  5
1C8C
102
{ACAD_REACTORS
330
1CE0
102
}
330
1F
100
AcDbEntity
  8
0
 62
    30
370
    13
100
AcDbPolyline
 90
        6
 70
     0
 43
0.0
 10
838.4999999999999
 20
2945.5
 10
838.4999999999999
 20
2936.1
 10
839.1
 20
2935.5
 10
843.9
 20
2935.5
 10
844.5
 20
2936.1
 10
844.5
 20
2945.5
  0
LWPOLYLINE
  5
1C8D
102
{ACAD_REACTORS
330
1CE0
102
}
330
1F
100
AcDbEntity
  8
0
 62
    30
370
    13
100
AcDbPolyline
 90
        6
 70
     1
 43
0.0
 10
848.0
 20
2936.0
 10
851.5
 20
2936.0
 10
851.5
 20
2941.0
 10
848.0
 20
2941.0
 42
0.4142135623730951
 10
845.5
 20
2938.5
 10
845.5
 20
2938.5
 42
0.4142135623730966
  0
LINE
  5
1C8E
102
{ACAD_REACTORS
330
1CE0
102
}
330
1F
100
AcDbEntity
  8
0
 62
    30
370
    13
100
AcDbLine
 10
807.4999999999999
 20
2948.5
 30
0.0
 11
807.4999999999999
 21
2948.372983346207
 31
0.0
  0
LWPOLYLINE
  5
1C8F
102
{ACAD_REACTORS
330
1CE0
102
}
330
1F
100
AcDbEntity
  8
0
 62
    30
370
    13
100
AcDbPolyline
 90
        6
 70
     0
 43
0.0
 10
851.5
 20
2924.5
 10
851.5
 20
2944.5
 42
0.4142135623730951
 10
850.5
 20
2945.5
 10
808.5
 20
2945.5
 42
0.4142135623730951
 10
807.4999999999999
 20
2944.5
 10
807.4999999999999
 20
2924.5
  0
LWPOLYLINE
  5
1C90
102
{ACAD_REACTORS
330
1CE0
102
}
330
1F
100
AcDbEntity
  8
0
 62
    30
370
    13
100
AcDbPolyline
 90
        6
 70
     0
 43
0.0
 10
823.4999999999999
 20
2945.5
 10
823.4999999999999
 20
2936.199999999999
 10
824.0999999999999
 20
2935.599999999999
 10
828.8999999999999
 20
2935.599999999999
 10
829.4999999999999
 20
2936.199999999999
 10
829.4999999999999
 20
2945.5
  0
LINE
  5
1C91
102
{ACAD_REACTORS
330
1CE0
102
}
330
1F
100
AcDbEntity
  8
0
 62
    30
370
    13
100
AcDbLine
 10
820.725216554379
 20
2950.0
 30
0.0
 11
832.2747834456206
 21
2950.0
 31
0.0
  0
LINE
  5
1C92
102
{ACAD_REACTORS
330
1CE0
102
}
330
1F
100
AcDbEntity
  8
0
 62
    30
370
    13
100
AcDbLine
 10
807.4999999999999
 20
2952.5
 30
0.0
 11
807.4999999999999
 21
2949.5
 31
0.0
  0
LINE
  5
1C93
102
{ACAD_REACTORS
330
1CE0
102
}
330
1F
100
AcDbEntity
  8
0
 62
    30
370
    13
100
AcDbLine
 10
823.6126082771896
 20
2954.16648180579
 30
0.0
 11
823.6126082771896
 21
2950.0
 31
0.0
  0
LINE
  5
1C94
102
{ACAD_REACTORS
330
1CE0
102
}
330
1F
100
AcDbEntity
  8
0
 62
    30
370
    13
100
AcDbLine
 10
829.3873917228104
 20
2954.16648180579
 30
0.0
 11
829.3873917228104
 21
2950.0
 31
0.0
  0
LINE
  5
1C95
102
{ACAD_REACTORS
330
1CE0
102
}
330
1F
100
AcDbEntity
  8
0
 62
    30
370
    13
100
AcDbLine
 10
832.2747834456206
 20
2954.16648180579
 30
0.0
 11
832.2747834456206
 21
2950.0
 31
0.0
  0
LINE
  5
1C96
102
{ACAD_REACTORS
330
1CE0
102
}
330
1F
100
AcDbEntity
  8
0
 62
    30
370
    13
100
AcDbLine
 10
820.725216554379
 20
2954.16648180579
 30
0.0
 11
820.725216554379
 21
2950.0
 31
0.0
  0
LINE
  5
1C97
102
{ACAD_REACTORS
330
1CE0
102
}
330
1F
100
AcDbEntity
  8
0
 62
    30
370
    13
100
AcDbLine
 10
825.4510895401521
 20
2949.501006063296
 30
0.0
 11
870.6484015598041
 21
2954.726231430293
 31
0.0
  0
LINE
  5
1C98
102
{ACAD_REACTORS
330
1CE0
102
}
330
1F
100
AcDbEntity
  8
0
 62
    30
370
    13
100
AcDbLine
 10
825.5
 20
2948.5
 30
0.0
 11
870.5978607206613
 21
2953.713727881261
 31
0.0
  0
LWPOLYLINE
  5
1C99
102
{ACAD_REACTORS
330
1CE0
102
}
330
1F
100
AcDbEntity
  8
0
 62
    30
370
    13
100
AcDbPolyline
 90
        6
 70
     0
 43
0.0
 10
829.4999999999999
 20
2949.853488181471
 10
829.4999999999999
 20
2955.0
 10
828.8999999999999
 20
2955.6
 10
824.0999999999999
 20
2955.6
 10
823.4999999999999
 20
2955.0
 10
823.4999999999999
 20
2949.5
  0
LWPOLYLINE
  5
1C9A
102
{ACAD_REACTORS
330
1CE0
102
}
330
1F
100
AcDbEntity
  8
0
 62
    30
370
    13
100
AcDbPolyline
 90
        2
 70
     0
 43
0.0
 10
844.5
 20
2948.5
 10
844.5
 20
2950.580965712409
  0
LINE
  5
1C9B
102
{ACAD_REACTORS
330
1CE0
102
}
330
1F
100
AcDbEntity
  8
0
 62
    30
370
    13
100
AcDbLine
 10
892.6643196398512
 20
2957.329165720265
 30
0.0
 11
892.2327840640136
 21
2958.231261639105
 31
0.0
  0
LWPOLYLINE
  5
1D56
102
{ACAD_REACTORS
330
1D5C
102
}
330
1F
100
AcDbEntity
  8
0
 62
    30
370
    13
100
AcDbPolyline
 90
        4
 70
     1
 43
0.0
 10
2300.499999999999
 20
2931.500000000001
 10
2296.499999999999
 20
2931.500000000001
 10
2296.499999999999
 20
2943.500000000001
 10
2300.499999999999
 20
2943.500000000001
  0
LWPOLYLINE
  5
1D57
102
{ACAD_REACTORS
330
1D5C
102
}
330
1F
100
AcDbEntity
  8
0
 62
    30
370
    13
100
AcDbPolyline
 90
        6
 70
     0
 43
0.0
 10
2311.0
 20
2949.5
 10
2311.0
 20
2955.900000000001
 10
2311.599999999999
 20
2956.500000000001
 10
2316.4
 20
2956.500000000001
 10
2317.0
 20
2955.900000000001
 10
2317.0
 20
2949.5
  0
LWPOLYLINE
  5
1D58
102
{ACAD_REACTORS
330
1D5C
102
}
330
1F
100
AcDbEntity
  8
0
 62
    30
370
    13
100
AcDbPolyline
 90
        6
 70
     0
 43
0.0
 10
2303.5
 20
2924.5
 10
2303.5
 20
2945.5
 42
-0.4142135623730951
 10
2304.5
 20
2946.500000000001
 10
2323.5
 20
2946.500000000001
 42
-0.4142135623730951
 10
2324.5
 20
2945.5
 10
2324.5
 20
2924.5
  0
LWPOLYLINE
  5
1D59
102
{ACAD_REACTORS
330
1D5C
102
}
330
1F
100
AcDbEntity
  8
0
 62
    30
370
    13
100
AcDbPolyline
 90
        8
 70
     0
 43
0.0
 10
2303.5
 20
2924.5
 10
2300.499999999999
 20
2924.5
 10
2300.499999999999
 20
2945.5
 42
-0.4142135623730951
 10
2304.5
 20
2949.5
 10
2323.5
 20
2949.5
 42
-0.4142135623730951
 10
2327.5
 20
2945.5
 10
2327.5
 20
2924.5
 10
2324.5
 20
2924.5
  0
LWPOLYLINE
  5
1D5A
102
{ACAD_REACTORS
330
1D5C
102
}
330
1F
100
AcDbEntity
  8
0
 62
    30
370
    13
100
AcDbPolyline
 90
        4
 70
     1
 43
0.0
 10
2308.499999999999
 20
2935.0
 10
2303.5
 20
2934.000000000001
 10
2303.5
 20
2941.000000000001
 10
2308.499999999999
 20
2940.000000000001
  0
LWPOLYLINE
  5
1D5B
102
{ACAD_REACTORS
330
1D5C
102
}
330
1F
100
AcDbEntity
  8
0
 62
    30
370
    13
100
AcDbPolyline
 90
        6
 70
     0
 43
0.0
 10
2317.0
 20
2946.500000000001
 10
2317.0
 20
2937.1
 10
2316.4
 20
2936.5
 10
2311.599999999999
 20
2936.5
 10
2311.0
 20
2937.1
 10
2311.0
 20
2946.500000000001
  0
LINE
  5
1D6C
102
{ACAD_REACTORS
330
1D88
102
}
330
1F
100
AcDbEntity
  8
0
 62
     5
370
    13
100
AcDbLine
 10
2853.001907555614
 20
1685.243672522069
 30
0.0
 11
2849.0
 21
1685.243672522069
 31
0.0
  0
LINE
  5
1D6D
102
{ACAD_REACTORS
330
1D88
102
}
330
1F
100
AcDbEntity
  8
0
 62
     5
370
    13
100
AcDbLine
 10
2829.698505272017
 20
1687.745080085888
 30
0.0
 11
2830.449616634156
 21
1686.995691456231
 31
0.0
  0
LINE
  5
1D6E
102
{ACAD_REACTORS
330
1D88
102
}
330
1F
100
AcDbEntity
  8
0
 62
     5
370
    13
100
AcDbLine
 10
2829.698505272017
 20
1687.745080085888
 30
0.0
 11
2827.700135592933
 21
1687.745080085888
 31
0.0
  0
LINE
  5
1D6F
102
{ACAD_REACTORS
330
1D88
102
}
330
1F
100
AcDbEntity
  8
0
 62
     5
370
    13
100
AcDbLine
 10
2827.19882044068
 20
1688.248117970623
 30
0.0
 11
2827.700135592933
 21
1687.745080085888
 31
0.0
  0
LINE
  5
1D70
102
{ACAD_REACTORS
330
1D88
102
}
330
1F
100
AcDbEntity
  8
0
 62
     5
370
    13
100
AcDbLine
 10
2830.447893901668
 20
1686.997414188713
 30
0.0
 11
2831.245519040821
 21
1686.997414188713
 31
0.0
  0
LINE
  5
1D71
102
{ACAD_REACTORS
330
1D88
102
}
330
1F
100
AcDbEntity
  8
0
 62
     5
370
    13
100
AcDbLine
 10
2829.836323870573
 20
1687.607261487331
 30
0.0
 11
2831.245519040821
 21
1687.607261487331
 31
0.0
  0
LINE
  5
1D72
102
{ACAD_REACTORS
330
1D88
102
}
330
1F
100
AcDbEntity
  8
0
 62
     5
370
    13
100
AcDbLine
 10
2830.449616634156
 20
1686.995691456231
 30
0.0
 11
2831.245519040821
 21
1686.995691456231
 31
0.0
  0
LINE
  5
1D73
102
{ACAD_REACTORS
330
1D88
102
}
330
1F
100
AcDbEntity
  8
0
 62
     5
370
    13
100
AcDbLine
 10
2834.999353119036
 20
1685.243672522069
 30
0.0
 11
2838.998676575926
 21
1685.243672522069
 31
0.0
  0
LINE
  5
1D74
102
{ACAD_REACTORS
330
1D88
102
}
330
1F
100
AcDbEntity
  8
0
 62
     5
370
    13
100
AcDbLine
 10
2831.245519040821
 20
1686.995691456231
 30
0.0
 11
2834.999353119036
 21
1685.243672522069
 31
0.0
  0
LINE
  5
1D75
102
{ACAD_REACTORS
330
1D88
102
}
330
1F
100
AcDbEntity
  8
0
 62
     5
370
    13
100
AcDbLine
 10
2858.001277218285
 20
1687.578836401378
 30
0.0
 11
2853.001907555614
 21
1685.243672522069
 31
0.0
  0
LINE
  5
1D76
102
{ACAD_REACTORS
330
1D88
102
}
330
1F
100
AcDbEntity
  8
0
 62
     5
370
    13
100
AcDbLine
 10
2853.001907555614
 20
1744.752882012966
 30
0.0
 11
2849.0
 21
1744.752882012966
 31
0.0
  0
LINE
  5
1D77
102
{ACAD_REACTORS
330
1D88
102
}
330
1F
100
AcDbEntity
  8
0
 62
     5
370
    13
100
AcDbLine
 10
2829.698505272017
 20
1742.251474449147
 30
0.0
 11
2830.449616634156
 21
1743.000863078804
 31
0.0
  0
LINE
  5
1D78
102
{ACAD_REACTORS
330
1D88
102
}
330
1F
100
AcDbEntity
  8
0
 62
     5
370
    13
100
AcDbLine
 10
2829.698505272017
 20
1742.251474449147
 30
0.0
 11
2827.700135592933
 21
1742.251474449147
 31
0.0
  0
LINE
  5
1D79
102
{ACAD_REACTORS
330
1D88
102
}
330
1F
100
AcDbEntity
  8
0
 62
     5
370
    13
100
AcDbLine
 10
2827.19882044068
 20
1741.751882029376
 30
0.0
 11
2827.700135592933
 21
1742.251474449147
 31
0.0
  0
LINE
  5
1D7A
102
{ACAD_REACTORS
330
1D88
102
}
330
1F
100
AcDbEntity
  8
0
 62
     5
370
    13
100
AcDbLine
 10
2831.245519040821
 20
1743.002585811286
 30
0.0
 11
2830.447893901668
 21
1743.002585811286
 31
0.0
  0
LINE
  5
1D7B
102
{ACAD_REACTORS
330
1D88
102
}
330
1F
100
AcDbEntity
  8
0
 62
     5
370
    13
100
AcDbLine
 10
2831.245519040821
 20
1742.389293047705
 30
0.0
 11
2829.836323870573
 21
1742.389293047705
 31
0.0
  0
LINE
  5
1D7C
102
{ACAD_REACTORS
330
1D88
102
}
330
1F
100
AcDbEntity
  8
0
 62
     5
370
    13
100
AcDbLine
 10
2830.449616634156
 20
1743.000863078804
 30
0.0
 11
2831.245519040821
 21
1743.000863078804
 31
0.0
  0
LINE
  5
1D7D
102
{ACAD_REACTORS
330
1D88
102
}
330
1F
100
AcDbEntity
  8
0
 62
     5
370
    13
100
AcDbLine
 10
2834.999353119036
 20
1744.752882012966
 30
0.0
 11
2838.998676575926
 21
1744.752882012966
 31
0.0
  0
LINE
  5
1D7E
102
{ACAD_REACTORS
330
1D88
102
}
330
1F
100
AcDbEntity
  8
0
 62
     5
370
    13
100
AcDbLine
 10
2831.245519040821
 20
1743.000863078804
 30
0.0
 11
2834.999353119036
 21
1744.752882012966
 31
0.0
  0
LINE
  5
1D7F
102
{ACAD_REACTORS
330
1D88
102
}
330
1F
100
AcDbEntity
  8
0
 62
     5
370
    13
100
AcDbLine
 10
2858.001277218285
 20
1742.421163598621
 30
0.0
 11
2853.001907555614
 21
1744.752882012966
 31
0.0
  0
LINE
  5
1D80
102
{ACAD_REACTORS
330
1D88
102
}
330
1F
100
AcDbEntity
  8
0
 62
     5
370
    13
100
AcDbLine
 10
2853.001907555614
 20
1744.752882012966
 30
0.0
 11
2853.001907555614
 21
1685.243672522069
 31
0.0
  0
LINE
  5
1D81
102
{ACAD_REACTORS
330
1D88
102
}
330
1F
100
AcDbEntity
  8
0
 62
     5
370
    13
100
AcDbLine
 10
2858.001277218285
 20
1687.578836401378
 30
0.0
 11
2858.001277218285
 21
1742.421163598621
 31
0.0
  0
LINE
  5
1D82
102
{ACAD_REACTORS
330
1D88
102
}
330
1F
100
AcDbEntity
  8
0
 62
     5
370
    13
100
AcDbLine
 10
2827.19882044068
 20
1688.248117970623
 30
0.0
 11
2827.19882044068
 21
1741.751882029376
 31
0.0
  0
LINE
  5
1D83
102
{ACAD_REACTORS
330
1D88
102
}
330
1F
100
AcDbEntity
  8
0
 62
     5
370
    13
100
AcDbLine
 10
2827.700135592933
 20
1742.251474449147
 30
0.0
 11
2827.700135592933
 21
1687.745080085888
 31
0.0
  0
LINE
  5
1D84
102
{ACAD_REACTORS
330
1D88
102
}
330
1F
100
AcDbEntity
  8
0
 62
     5
370
    13
100
AcDbLine
 10
2829.698505272017
 20
1742.251474449147
 30
0.0
 11
2829.698505272017
 21
1687.745080085888
 31
0.0
  0
LINE
  5
1D85
102
{ACAD_REACTORS
330
1D88
102
}
330
1F
100
AcDbEntity
  8
0
 62
     5
370
    13
100
AcDbLine
 10
2830.449616634156
 20
1743.000863078804
 30
0.0
 11
2830.449616634156
 21
1686.995691456231
 31
0.0
  0
LINE
  5
1D86
102
{ACAD_REACTORS
330
1D88
102
}
330
1F
100
AcDbEntity
  8
0
 62
     5
370
    13
100
AcDbLine
 10
2831.245519040821
 20
1743.000863078804
 30
0.0
 11
2831.245519040821
 21
1686.995691456231
 31
0.0
  0
LINE
  5
1D87
102
{ACAD_REACTORS
330
1D88
102
}
330
1F
100
AcDbEntity
  8
0
 62
     5
370
    13
100
AcDbLine
 10
2834.999353119036
 20
1685.243672522069
 30
0.0
 11
2834.999353119036
 21
1744.752882012966
 31
0.0
  0
LINE
  5
1D89
330
1F
100
AcDbEntity
  8
Defpoints
370
    13
100
AcDbLine
 10
2604.0
 20
3840.499999999855
 30
0.0
 11
1604.0
 21
3840.499999999855
 31
0.0
  0
LINE
  5
1D8A
330
1F
100
AcDbEntity
  8
0
370
    13
100
AcDbLine
 10
1604.0
 20
3740.499999999855
 30
0.0
 11
2604.0
 21
3740.499999999855
 31
0.0
  0
HATCH
  5
1D8B
330
1F
100
AcDbEntity
  8
0
  6
ACAD_ISO07W100
370
    13
100
AcDbHatch
 10
0.0
 20
0.0
 30
0.0
210
0.0
220
0.0
230
1.0
  2
ANSI38
 70
     0
 71
     0
 91
        1
 92
        7
 72
     0
 73
     1
 93
        9
 10
1604.0
 20
3740.499999999855
 10
2408.000000000007
 20
3740.499999999854
 10
2408.000000000007
 20
3750.499999999675
 10
2409.000000000007
 20
3750.499999999675
 10
2409.000000000007
 20
3740.499999999854
 10
2449.999999999998
 20
3740.499999999855
 10
2604.0
 20
3740.499999999854
 10
2604.0
 20
3840.499999999855
 10
1604.0
 20
3840.499999999855
 97
        0
 75
     0
 76
     1
 52
180.0
 41
10.0
 77
     0
 78
     2
 53
225.0
 43
3124.999999999999
 44
7468.4999999997
 45
22.45064030267287
 46
-22.45064030267288
 79
     0
 53
315.0
 43
3124.999999999999
 44
7468.4999999997
 45
67.35192090801864
 46
-22.45064030267289
 79
     2
 49
79.375
 49
-47.625
 47
1.19029343590212
 98
        1
 10
1912.681956214934
 20
3805.927451877609
  0
LINE
  5
1D8C
330
1F
100
AcDbEntity
  8
Defpoints
370
    13
100
AcDbLine
 10
2604.0
 20
3740.499999999855
 30
0.0
 11
2604.0
 21
3840.499999999855
 31
0.0
  0
LINE
  5
1D8D
330
1F
100
AcDbEntity
  8
0
370
    13
100
AcDbLine
 10
1604.0
 20
3840.499999999855
 30
0.0
 11
1604.0
 21
3740.499999999855
 31
0.0
  0
LWPOLYLINE
  5
1D8E
330
1F
100
AcDbEntity
  8
0
 62
     8
370
    13
100
AcDbPolyline
 90
        4
 70
     1
 43
0.0
 10
750.0
 20
3703.499999999854
 10
2450.0
 20
3703.499999999854
 10
2450.0
 20
3740.499999999855
 10
750.0
 20
3740.499999999855
  0
LWPOLYLINE
  5
1DA9
102
{ACAD_REACTORS
330
1DBA
102
}
330
1F
100
AcDbEntity
  8
0
 62
     3
370
    13
100
AcDbPolyline
 90
        4
 70
     1
 43
0.0
 10
1542.500000000003
 20
3725.999999999851
 10
1542.5
 20
3717.999999999851
 10
1465.5
 20
3717.99999999988
 10
1465.500000000003
 20
3725.99999999988
  0
LWPOLYLINE
  5
1DAA
102
{ACAD_REACTORS
330
1DBA
102
}
330
1F
100
AcDbEntity
  8
0
 62
     3
370
    13
100
AcDbPolyline
 90
        4
 70
     1
 43
0.0
 10
1484.750000000003
 20
3725.999999999872
 10
1484.750000000005
 20
3729.999999999872
 10
1475.250000000005
 20
3729.999999999876
 10
1475.250000000003
 20
3725.999999999876
  0
LWPOLYLINE
  5
1DAB
102
{ACAD_REACTORS
330
1DBA
102
}
330
1F
100
AcDbEntity
  8
0
 62
     3
370
    13
100
AcDbPolyline
 90
        4
 70
     1
 43
0.0
 10
1494.500000000005
 20
3729.999999999868
 10
1494.000000000007
 20
3735.999999999869
 10
1466.000000000007
 20
3735.999999999879
 10
1465.500000000005
 20
3729.999999999879
  0
LWPOLYLINE
  5
1DAC
102
{ACAD_REACTORS
330
1DBA
102
}
330
1F
100
AcDbEntity
  8
0
 62
     3
370
    13
100
AcDbPolyline
 90
        4
 70
     1
 43
0.0
 10
1523.250000000003
 20
3725.999999999858
 10
1523.250000000005
 20
3729.999999999858
 10
1532.750000000005
 20
3729.999999999854
 10
1532.750000000003
 20
3725.999999999855
  0
LWPOLYLINE
  5
1DAD
102
{ACAD_REACTORS
330
1DBA
102
}
330
1F
100
AcDbEntity
  8
0
 62
     3
370
    13
100
AcDbPolyline
 90
        4
 70
     1
 43
0.0
 10
1513.500000000004
 20
3729.999999999862
 10
1514.000000000007
 20
3735.999999999862
 10
1542.000000000007
 20
3735.999999999852
 10
1542.500000000005
 20
3729.999999999851
  0
LWPOLYLINE
  5
1DAE
102
{ACAD_REACTORS
330
1DBA
102
}
330
1F
100
AcDbEntity
  8
0
 62
     3
370
    13
100
AcDbPolyline
 90
        4
 70
     1
 43
0.0
 10
1523.25
 20
3717.999999999858
 10
1523.249999999999
 20
3713.999999999858
 10
1532.749999999999
 20
3713.999999999855
 10
1532.75
 20
3717.999999999855
  0
LWPOLYLINE
  5
1DAF
102
{ACAD_REACTORS
330
1DBA
102
}
330
1F
100
AcDbEntity
  8
0
 62
     3
370
    13
100
AcDbPolyline
 90
        4
 70
     1
 43
0.0
 10
1513.499999999999
 20
3713.999999999862
 10
1513.999999999997
 20
3707.999999999862
 10
1541.999999999997
 20
3707.999999999852
 10
1542.499999999999
 20
3713.999999999851
  0
LWPOLYLINE
  5
1DB0
102
{ACAD_REACTORS
330
1DBA
102
}
330
1F
100
AcDbEntity
  8
0
 62
     3
370
    13
100
AcDbPolyline
 90
        4
 70
     1
 43
0.0
 10
1496.999999999996
 20
3705.999999999868
 10
1496.999999999996
 20
3706.999999999867
 10
1510.999999999996
 20
3706.999999999863
 10
1510.999999999996
 20
3705.999999999863
  0
LWPOLYLINE
  5
1DB1
102
{ACAD_REACTORS
330
1DBA
102
}
330
1F
100
AcDbEntity
  8
0
 62
     3
370
    13
100
AcDbPolyline
 90
        4
 70
     1
 43
0.0
 10
1518.499999999996
 20
3706.99999999986
 10
1518.499999999996
 20
3705.99999999986
 10
1489.499999999996
 20
3705.999999999871
 10
1489.499999999996
 20
3706.999999999871
  0
LWPOLYLINE
  5
1DB2
102
{ACAD_REACTORS
330
1DBA
102
}
330
1F
100
AcDbEntity
  8
0
 62
     3
370
    13
100
AcDbPolyline
 90
        6
 70
     1
 43
0.0
 10
1488.999999999995
 20
3702.999999999871
 10
1488.999999999996
 20
3705.999999999871
 10
1518.999999999996
 20
3705.99999999986
 10
1518.999999999995
 20
3702.99999999986
 10
1516.999999999994
 20
3700.999999999861
 10
1490.999999999994
 20
3700.99999999987
  0
LWPOLYLINE
  5
1DB3
102
{ACAD_REACTORS
330
1DBA
102
}
330
1F
100
AcDbEntity
  8
0
 62
     3
370
    13
100
AcDbPolyline
 90
        6
 70
     1
 43
0.0
 10
1519.000000000004
 20
3728.99999999986
 10
1519.000000000003
 20
3725.99999999986
 10
1489.000000000003
 20
3725.999999999871
 10
1489.000000000004
 20
3728.99999999987
 10
1491.000000000005
 20
3730.99999999987
 10
1517.000000000005
 20
3730.999999999861
  0
LWPOLYLINE
  5
1DB4
102
{ACAD_REACTORS
330
1DBA
102
}
330
1F
100
AcDbEntity
  8
0
 62
     3
370
    13
100
AcDbPolyline
 90
        4
 70
     1
 43
0.0
 10
1518.5
 20
3717.99999999986
 10
1518.5
 20
3716.99999999986
 10
1489.5
 20
3716.99999999987
 10
1489.5
 20
3717.99999999987
  0
LWPOLYLINE
  5
1DB5
102
{ACAD_REACTORS
330
1DBA
102
}
330
1F
100
AcDbEntity
  8
0
 62
     3
370
    13
100
AcDbPolyline
 90
        4
 70
     1
 43
0.0
 10
1511.000000000003
 20
3725.999999999863
 10
1510.999999999997
 20
3708.999999999863
 10
1496.999999999997
 20
3708.999999999868
 10
1497.000000000003
 20
3725.999999999868
  0
LWPOLYLINE
  5
1DB6
102
{ACAD_REACTORS
330
1DBA
102
}
330
1F
100
AcDbEntity
  8
0
 62
     3
370
    13
100
AcDbPolyline
 90
        4
 70
     1
 43
0.0
 10
1508.999999999999
 20
3713.999999999863
 10
1508.999999999996
 20
3706.999999999863
 10
1498.999999999996
 20
3706.999999999867
 10
1498.999999999999
 20
3713.999999999867
  0
LWPOLYLINE
  5
1DB7
102
{ACAD_REACTORS
330
1DBA
102
}
330
1F
100
AcDbEntity
  8
0
 62
     3
370
    13
100
AcDbPolyline
 90
        4
 70
     1
 43
0.0
 10
1512.5
 20
3716.999999999862
 10
1512.499999999997
 20
3709.999999999862
 10
1495.499999999997
 20
3709.999999999868
 10
1495.5
 20
3716.999999999869
  0
LWPOLYLINE
  5
1DB8
102
{ACAD_REACTORS
330
1DBA
102
}
330
1F
100
AcDbEntity
  8
0
 62
     3
370
    13
100
AcDbPolyline
 90
        4
 70
     1
 43
0.0
 10
1484.75
 20
3717.999999999872
 10
1484.749999999999
 20
3713.999999999872
 10
1475.249999999999
 20
3713.999999999876
 10
1475.25
 20
3717.999999999875
  0
LWPOLYLINE
  5
1DB9
102
{ACAD_REACTORS
330
1DBA
102
}
330
1F
100
AcDbEntity
  8
0
 62
     3
370
    13
100
AcDbPolyline
 90
        4
 70
     1
 43
0.0
 10
1494.499999999999
 20
3713.999999999869
 10
1493.999999999997
 20
3707.999999999869
 10
1465.999999999997
 20
3707.999999999879
 10
1465.499999999999
 20
3713.999999999879
  0
LWPOLYLINE
  5
1DC8
102
{ACAD_REACTORS
330
1E00
102
}
330
1F
100
AcDbEntity
  8
0
 62
    30
370
    13
100
AcDbPolyline
 90
        4
 70
     1
 43
0.0
 10
804.4999999999999
 20
3718.499999999855
 10
807.4999999999999
 20
3718.499999999855
 10
807.4999999999999
 20
3725.499999999855
 10
804.4999999999999
 20
3725.499999999855
  0
LWPOLYLINE
  5
1DC9
102
{ACAD_REACTORS
330
1E00
102
}
330
1F
100
AcDbEntity
  8
0
 62
    30
370
    13
100
AcDbPolyline
 90
        6
 70
     0
 43
0.0
 10
854.4999999999999
 20
3732.277777777633
 10
854.4999999999999
 20
3735.999999999854
 10
804.4999999999999
 20
3735.999999999854
 10
804.4999999999999
 20
3707.999999999854
 10
854.4999999999999
 20
3707.999999999854
 10
854.4999999999999
 20
3711.722222222077
  0
LINE
  5
1DCA
102
{ACAD_REACTORS
330
1E00
102
}
330
1F
100
AcDbEntity
  8
0
 62
    30
370
    13
100
AcDbLine
 10
805.4999999999999
 20
3734.999999999855
 30
0.0
 11
847.4999999999999
 21
3734.999999999855
 31
0.0
  0
LINE
  5
1DCB
102
{ACAD_REACTORS
330
1E00
102
}
330
1F
100
AcDbEntity
  8
0
 62
    30
370
    13
100
AcDbLine
 10
805.4999999999999
 20
3708.999999999854
 30
0.0
 11
847.4999999999999
 21
3708.999999999854
 31
0.0
  0
LINE
  5
1DCE
102
{ACAD_REACTORS
330
1E00
102
}
330
1F
100
AcDbEntity
  8
0
 62
    30
370
    13
100
AcDbLine
 10
805.4999999999999
 20
3718.499999999855
 30
0.0
 11
805.4999999999999
 21
3708.999999999854
 31
0.0
  0
LINE
  5
1DCF
102
{ACAD_REACTORS
330
1E00
102
}
330
1F
100
AcDbEntity
  8
0
 62
    30
370
    13
100
AcDbLine
 10
805.4999999999999
 20
3734.999999999855
 30
0.0
 11
805.4999999999999
 21
3725.499999999855
 31
0.0
  0
LINE
  5
1DD0
102
{ACAD_REACTORS
330
1E00
102
}
330
1F
100
AcDbEntity
  8
0
 62
    30
370
    13
100
AcDbLine
 10
892.6643196398512
 20
3715.999999999854
 30
0.0
 11
892.6643196398512
 21
3727.999999999855
 31
0.0
  0
LINE
  5
1DD1
102
{ACAD_REACTORS
330
1E00
102
}
330
1F
100
AcDbEntity
  8
0
 62
    30
370
    13
100
AcDbLine
 10
880.4394133846383
 20
3715.999999999854
 30
0.0
 11
880.4394133846383
 21
3727.999999999855
 31
0.0
  0
LINE
  5
1DD2
102
{ACAD_REACTORS
330
1E00
102
}
330
1F
100
AcDbEntity
  8
0
 62
    30
370
    13
100
AcDbLine
 10
870.6484015598041
 20
3715.999999999854
 30
0.0
 11
870.6484015598041
 21
3727.999999999855
 31
0.0
  0
CIRCLE
  5
1DD3
102
{ACAD_REACTORS
330
1E00
102
}
330
1F
100
AcDbEntity
  8
0
 62
    30
370
    13
100
AcDbCircle
 10
841.5
 20
3721.999999999855
 30
0.0
 40
3.0
  0
ARC
  5
1DD4
102
{ACAD_REACTORS
330
1E00
102
}
330
1F
100
AcDbEntity
  8
0
 62
    30
370
    13
100
AcDbCircle
 10
809.0
 20
3721.999999999855
 30
0.0
 40
2.5
100
AcDbArc
 50
270.0
 51
90.0
  0
LWPOLYLINE
  5
1DD5
102
{ACAD_REACTORS
330
1E00
102
}
330
1F
100
AcDbEntity
  8
0
 62
    30
370
    13
100
AcDbPolyline
 90
        6
 70
     1
 43
0.0
 10
823.6126082771896
 20
3727.001109165116
 10
820.7252165543792
 20
3721.999999999855
 10
823.6126082771896
 20
3716.998890834593
 10
829.3873917228104
 20
3716.998890834593
 10
832.2747834456208
 20
3721.999999999855
 10
829.3873917228104
 20
3727.001109165116
  0
CIRCLE
  5
1DD6
102
{ACAD_REACTORS
330
1E00
102
}
330
1F
100
AcDbEntity
  8
0
 62
    30
370
    13
100
AcDbCircle
 10
826.5
 20
3721.999999999855
 30
0.0
 40
5.001109165261434
  0
CIRCLE
  5
1DD7
102
{ACAD_REACTORS
330
1E00
102
}
330
1F
100
AcDbEntity
  8
0
 62
    30
370
    13
100
AcDbCircle
 10
826.5
 20
3721.999999999855
 30
0.0
 40
3.0
  0
LINE
  5
1DD8
102
{ACAD_REACTORS
330
1E00
102
}
330
1F
100
AcDbEntity
  8
0
 62
    30
370
    13
100
AcDbLine
 10
847.4999999999999
 20
3708.999999999854
 30
0.0
 11
865.4999999999999
 21
3715.999999999854
 31
0.0
  0
LINE
  5
1DD9
102
{ACAD_REACTORS
330
1E00
102
}
330
1F
100
AcDbEntity
  8
0
 62
    30
370
    13
100
AcDbLine
 10
809.0
 20
3719.499999999855
 30
0.0
 11
807.4999999999999
 21
3719.499999999855
 31
0.0
  0
LINE
  5
1DDA
102
{ACAD_REACTORS
330
1E00
102
}
330
1F
100
AcDbEntity
  8
0
 62
    30
370
    13
100
AcDbLine
 10
865.4999999999997
 20
3715.999999999854
 30
0.0
 11
892.6643196398512
 21
3715.999999999854
 31
0.0
  0
LINE
  5
1DDB
102
{ACAD_REACTORS
330
1E00
102
}
330
1F
100
AcDbEntity
  8
0
 62
    30
370
    13
100
AcDbLine
 10
847.4999999999999
 20
3734.999999999855
 30
0.0
 11
865.4999999999999
 21
3727.999999999855
 31
0.0
  0
LINE
  5
1DDC
102
{ACAD_REACTORS
330
1E00
102
}
330
1F
100
AcDbEntity
  8
0
 62
    30
370
    13
100
AcDbLine
 10
809.0
 20
3724.499999999855
 30
0.0
 11
807.4999999999999
 21
3724.499999999855
 31
0.0
  0
LINE
  5
1DDD
102
{ACAD_REACTORS
330
1E00
102
}
330
1F
100
AcDbEntity
  8
0
 62
    30
370
    13
100
AcDbLine
 10
865.4999999999999
 20
3727.999999999855
 30
0.0
 11
892.6643196398512
 21
3727.999999999855
 31
0.0
  0
LWPOLYLINE
  5
1E01
102
{ACAD_REACTORS
330
1E28
102
}
330
1F
100
AcDbEntity
  8
0
 62
    30
370
    13
100
AcDbPolyline
 90
        4
 70
     1
 43
0.0
 10
2300.499999999999
 20
3727.999999999855
 10
2296.499999999999
 20
3727.999999999855
 10
2296.499999999999
 20
3715.999999999854
 10
2300.499999999999
 20
3715.999999999854
  0
CIRCLE
  5
1E02
102
{ACAD_REACTORS
330
1E28
102
}
330
1F
100
AcDbEntity
  8
0
 62
    30
370
    13
100
AcDbCircle
 10
2314.0
 20
3721.999999999855
 30
0.0
 40
3.0
  0
LWPOLYLINE
  5
1E03
102
{ACAD_REACTORS
330
1E28
102
}
330
1F
100
AcDbEntity
  8
0
 62
    30
370
    13
100
AcDbPolyline
 90
        4
 70
     1
 43
0.0
 10
2327.5
 20
3735.999999999854
 10
2300.499999999999
 20
3735.999999999854
 10
2300.499999999999
 20
3707.999999999854
 10
2327.5
 20
3707.999999999854
  0
MTEXT
  5
1E39
330
1F
100
AcDbEntity
  8
文字
370
    13
100
AcDbMText
 10
5590.0
 20
4267.499999999997
 30
0.0
 40
37.5
 41
560.0
 71
     4
 72
     5
  1
引戸ｶﾞﾗｽ
 73
     1
 44
1.0
  0
MTEXT
  5
1E3A
330
1F
100
AcDbEntity
  8
文字
370
    13
100
AcDbMText
 10
5650.0
 20
3442.49999999999
 30
0.0
 40
37.5
 41
192.0538999999999
 71
     5
 72
     5
  1
1000
 73
     1
 44
1.0
  0
MTEXT
  5
1E3B
330
1F
100
AcDbEntity
  8
文字
370
    13
100
AcDbMText
 10
5650.0
 20
3517.499999999991
 30
0.0
 40
32.0
 41
200.8885643702889
 71
     5
 72
     5
  1
ﾚﾊﾞｰ高さ
 73
     1
 44
1.0
  0
LINE
  5
1E3C
330
1F
100
AcDbEntity
  8
0
370
    13
100
AcDbLine
 10
4550.0
 20
4229.999999999997
 30
0.0
 11
6150.0
 21
4229.999999999997
 31
0.0
  0
LINE
  5
1E3D
330
1F
100
AcDbEntity
  8
0
370
    13
100
AcDbLine
 10
4550.0
 20
4154.999999999996
 30
0.0
 11
6150.0
 21
4154.999999999996
 31
0.0
  0
LINE
  5
1E3E
330
1F
100
AcDbEntity
  8
0
370
    13
100
AcDbLine
 10
4550.0
 20
4079.999999999995
 30
0.0
 11
6150.0
 21
4079.999999999995
 31
0.0
  0
LINE
  5
1E3F
330
1F
100
AcDbEntity
  8
0
370
    13
100
AcDbLine
 10
4550.0
 20
3554.999999999991
 30
0.0
 11
6150.0
 21
3554.999999999991
 31
0.0
  0
MTEXT
  5
1E40
330
1F
100
AcDbEntity
  8
文字
370
    13
100
AcDbMText
 10
4815.0
 20
3592.499999999991
 30
0.0
 40
37.5
 41
1150.0099
 71
     4
 72
     5
  1
強化透明ｶﾞﾗｽ t=10 ＋ 透明飛散防止ﾌｨﾙﾑ貼り
 73
     1
 44
1.0
  0
LINE
  5
1E41
330
1F
100
AcDbEntity
  8
0
370
    13
100
AcDbLine
 10
4550.0
 20
3479.999999999989
 30
0.0
 11
6150.0
 21
3479.999999999989
 31
0.0
  0
LINE
  5
1E42
330
1F
100
AcDbEntity
  8
0
370
    13
100
AcDbLine
 10
4550.0
 20
3704.999999999991
 30
0.0
 11
6150.0
 21
3704.999999999991
 31
0.0
  0
LINE
  5
1E43
330
1F
100
AcDbEntity
  8
0
370
    13
100
AcDbLine
 10
4550.0
 20
3629.99999999999
 30
0.0
 11
6150.0
 21
3629.99999999999
 31
0.0
  0
LINE
  5
1E44
330
1F
100
AcDbEntity
  8
0
370
    13
100
AcDbLine
 10
4550.0
 20
3854.999999999994
 30
0.0
 11
6150.0
 21
3854.999999999994
 31
0.0
  0
LINE
  5
1E45
330
1F
100
AcDbEntity
  8
0
370
    13
100
AcDbLine
 10
4550.0
 20
3404.99999999999
 30
0.0
 11
6150.0
 21
3404.99999999999
 31
0.0
  0
LINE
  5
1E46
330
1F
100
AcDbEntity
  8
0
370
    13
100
AcDbLine
 10
4550.0
 20
3779.999999999992
 30
0.0
 11
6150.0
 21
3779.999999999992
 31
0.0
  0
LINE
  5
1E47
330
1F
100
AcDbEntity
  8
0
370
    13
100
AcDbLine
 10
4550.0
 20
3929.999999999992
 30
0.0
 11
6150.0
 21
3929.999999999992
 31
0.0
  0
LINE
  5
1E48
330
1F
100
AcDbEntity
  8
0
370
    13
100
AcDbLine
 10
4550.0
 20
4004.999999999994
 30
0.0
 11
6150.0
 21
4004.999999999994
 31
0.0
  0
LINE
  5
1E4A
330
1F
100
AcDbEntity
  8
0
370
    13
100
AcDbLine
 10
4800.0
 20
4304.999999999997
 30
0.0
 11
4800.0
 21
3554.999999999991
 31
0.0
  0
MTEXT
  5
1E4B
330
1F
100
AcDbEntity
  8
文字
370
    13
100
AcDbMText
 10
4675.0
 20
4192.499999999998
 30
0.0
 40
37.5
 41
299.8331
 71
     5
 72
     5
  1
枠
 73
     1
 44
1.0
  0
MTEXT
  5
1E4C
330
1F
100
AcDbEntity
  8
文字
370
    13
100
AcDbMText
 10
4815.0
 20
4192.499999999998
 30
0.0
 40
37.5
 41
1150.0099
 71
     4
 72
     5
  1
無
 73
     1
 44
1.0
  0
LINE
  5
1E4D
330
1F
100
AcDbEntity
  8
0
370
    13
100
AcDbLine
 10
4550.0
 20
4304.999999999998
 30
0.0
 11
4550.0
 21
3404.99999999999
 31
0.0
  0
MTEXT
  5
1E4F
330
1F
100
AcDbEntity
  8
文字
370
    13
100
AcDbMText
 10
5050.0
 20
3517.499999999991
 30
0.0
 40
37.5
 41
192.0538999999999
 71
     5
 72
     5
  1
取っ手
 73
     1
 44
1.0
  0
MTEXT
  5
1E50
330
1F
100
AcDbEntity
  8
文字
370
    13
100
AcDbMText
 10
4850.0
 20
3517.499999999991
 30
0.0
 40
37.5
 41
192.0538999999999
 71
     5
 72
     5
  1
部屋名
 73
     1
 44
1.0
  0
LINE
  5
1E51
330
1F
100
AcDbEntity
  8
0
370
    13
100
AcDbLine
 10
4750.0
 20
3404.99999999999
 30
0.0
 11
4750.0
 21
3554.999999999991
 31
0.0
  0
MTEXT
  5
1E52
330
1F
100
AcDbEntity
  8
文字
370
    13
100
AcDbMText
 10
4650.0
 20
3517.499999999991
 30
0.0
 40
37.5
 41
192.0539282074707
 71
     5
 72
     5
  1
タイプ
 73
     1
 44
1.0
  0
LINE
  5
1E53
330
1F
100
AcDbEntity
  8
0
370
    13
100
AcDbLine
 10
4950.0
 20
3404.99999999999
 30
0.0
 11
4950.0
 21
3554.999999999991
 31
0.0
  0
MTEXT
  5
1E54
330
1F
100
AcDbEntity
  8
文字
370
    13
100
AcDbMText
 10
4650.0
 20
3442.49999999999
 30
0.0
 40
37.5
 41
192.0538999999999
 71
     5
 72
     5
  1
引戸
 73
     1
 44
1.0
  0
MTEXT
  5
1E55
330
1F
100
AcDbEntity
  8
文字
370
    13
100
AcDbMText
 10
4850.0
 20
3442.49999999999
 30
0.0
 40
37.5
 41
192.0538999999999
 71
     5
 72
     5
  1
洗面室
 73
     1
 44
1.0
  0
MTEXT
  5
1E56
330
1F
100
AcDbEntity
  8
文字
370
    13
100
AcDbMText
 10
4675.0
 20
3592.499999999991
 30
0.0
 40
37.5
 41
299.8331
 71
     5
 72
     5
  1
面材
 73
     1
 44
1.0
  0
MTEXT
  5
1E57
330
1F
100
AcDbEntity
  8
文字
370
    13
100
AcDbMText
 10
5450.0
 20
3517.499999999991
 30
0.0
 40
37.5
 41
192.0538999999999
 71
     5
 72
     5
  1
DH
 73
     1
 44
1.0
  0
LINE
  5
1E58
330
1F
100
AcDbEntity
  8
0
370
    13
100
AcDbLine
 10
5150.0
 20
3404.99999999999
 30
0.0
 11
5150.0
 21
3554.999999999991
 31
0.0
  0
LINE
  5
1E59
330
1F
100
AcDbEntity
  8
0
370
    13
100
AcDbLine
 10
5350.0
 20
3404.99999999999
 30
0.0
 11
5350.0
 21
3554.999999999991
 31
0.0
  0
MTEXT
  5
1E5A
330
1F
100
AcDbEntity
  8
文字
370
    13
100
AcDbMText
 10
5250.0
 20
3517.499999999991
 30
0.0
 40
37.5
 41
192.0538999999999
 71
     5
 72
     5
  1
DW
 73
     1
 44
1.0
  0
LINE
  5
1E5B
330
1F
100
AcDbEntity
  8
0
370
    13
100
AcDbLine
 10
5550.000000000002
 20
3404.99999999999
 30
0.0
 11
5550.0
 21
3554.999999999991
 31
0.0
  0
MTEXT
  5
1E5C
330
1F
100
AcDbEntity
  8
文字
370
    13
100
AcDbMText
 10
5050.0
 20
3442.49999999999
 30
0.0
 40
37.5
 41
192.0538999999999
 71
     5
 72
     5
  1
L
 73
     1
 44
1.0
  0
MTEXT
  5
1E5D
330
1F
100
AcDbEntity
  8
文字
370
    13
100
AcDbMText
 10
5250.0
 20
3442.49999999999
 30
0.0
 40
37.5
 41
192.0538999999999
 71
     5
 72
     5
  1
900
 73
     1
 44
1.0
  0
MTEXT
  5
1E5E
330
1F
100
AcDbEntity
  8
文字
370
    13
100
AcDbMText
 10
5450.0
 20
3442.49999999999
 30
0.0
 40
37.5
 41
192.0538999999999
 71
     5
 72
     5
  1
2000
 73
     1
 44
1.0
  0
MTEXT
  5
1E5F
330
1F
100
AcDbEntity
  8
文字
370
    13
100
AcDbMText
 10
4815.0
 20
4117.499999999996
 30
0.0
 40
37.5
 41
1018.8181
 71
     4
 72
     5
  1
レール（1160）ドア用
 73
     1
 44
1.0
  0
MTEXT
  5
1E60
330
1F
100
AcDbEntity
  8
文字
370
    13
100
AcDbMText
 10
4815.0
 20
3967.499999999994
 30
0.0
 40
37.5
 41
1018.8181
 71
     4
 72
     5
  1
EOS（1158）セット
 73
     1
 44
1.0
  0
MTEXT
  5
1E61
330
1F
100
AcDbEntity
  8
文字
370
    13
100
AcDbMText
 10
4815.0
 20
3817.499999999991
 30
0.0
 40
37.5
 41
1335.0
 71
     4
 72
     5
  1
エッジシール　OT-N642N-1
 73
     1
 44
1.0
  0
MTEXT
  5
1E62
330
1F
100
AcDbEntity
  8
文字
370
    13
100
AcDbMText
 10
4675.0
 20
4117.499999999996
 30
0.0
 40
37.5
 41
299.8331
 71
     5
 72
     5
  1
扉用部品
 73
     1
 44
1.0
  0
MTEXT
  5
1E63
330
1F
100
AcDbEntity
  8
文字
370
    13
100
AcDbMText
 10
4815.0
 20
4267.499999999997
 30
0.0
 40
37.5
 41
1150.0099
 71
     4
 72
     5
  1
洗面室　～　浴室
 73
     1
 44
1.0
  0
MTEXT
  5
1E64
330
1F
100
AcDbEntity
  8
文字
370
    13
100
AcDbMText
 10
4675.0
 20
4267.499999999997
 30
0.0
 40
37.5
 41
299.83305
 71
     5
 72
     5
  1
使用場所
 73
     1
 44
1.0
  0
LINE
  5
1E65
330
1F
100
AcDbEntity
  8
0
370
    13
100
AcDbLine
 10
5575.0
 20
4229.999999999997
 30
0.0
 11
5575.0
 21
4304.999999999997
 31
0.0
  0
LINE
  5
1E66
330
1F
100
AcDbEntity
  8
0
370
    13
100
AcDbLine
 10
5375.0
 20
4229.999999999997
 30
0.0
 11
5375.0
 21
4304.999999999997
 31
0.0
  0
MTEXT
  5
1E67
330
1F
100
AcDbEntity
  8
文字
370
    13
100
AcDbMText
 10
5475.0
 20
4267.499999999997
 30
0.0
 40
37.5
 41
299.8331
 71
     5
 72
     5
  1
扉形状
 73
     1
 44
1.0
  0
MTEXT
  5
1E68
330
1F
100
AcDbEntity
  8
文字
370
    13
100
AcDbMText
 10
5850.0
 20
3517.499999999992
 30
0.0
 40
32.0
 41
200.8885999999999
 71
     5
 72
     5
  1
ｱﾝﾀﾞｰｶｯﾄ
 73
     1
 44
1.0
  0
LINE
  5
1E69
330
1F
100
AcDbEntity
  8
0
370
    13
100
AcDbLine
 10
5750.0
 20
3404.99999999999
 30
0.0
 11
5750.0
 21
3554.999999999991
 31
0.0
  0
MTEXT
  5
1E6A
330
1F
100
AcDbEntity
  8
文字
370
    13
100
AcDbMText
 10
6050.0
 20
3517.499999999991
 30
0.0
 40
37.5
 41
192.0538999999999
 71
     5
 72
     5
  1
枚数
 73
     1
 44
1.0
  0
LINE
  5
1E6B
330
1F
100
AcDbEntity
  8
0
370
    13
100
AcDbLine
 10
5950.0
 20
3404.99999999999
 30
0.0
 11
5950.0
 21
3554.999999999991
 31
0.0
  0
MTEXT
  5
1E6C
330
1F
100
AcDbEntity
  8
文字
370
    13
100
AcDbMText
 10
5850.0
 20
3442.49999999999
 30
0.0
 40
37.5
 41
192.0538999999999
 71
     5
 72
     5
  1
10
 73
     1
 44
1.0
  0
MTEXT
  5
1E6D
330
1F
100
AcDbEntity
  8
文字
370
    13
100
AcDbMText
 10
6050.0
 20
3442.49999999999
 30
0.0
 40
37.5
 41
192.0538999999999
 71
     5
 72
     5
  1
1
 73
     1
 44
1.0
  0
MTEXT
  5
1E6E
330
1F
100
AcDbEntity
  8
文字
370
    13
100
AcDbMText
 10
5890.0
 20
3967.499999999994
 30
0.0
 40
37.5
 41
285.0
 71
     4
 72
     5
  1
INAL
 73
     1
 44
1.0
  0
MTEXT
  5
1E6F
330
1F
100
AcDbEntity
  8
文字
370
    13
100
AcDbMText
 10
5890.0
 20
4117.499999999996
 30
0.0
 40
37.5
 41
285.0
 71
     4
 72
     5
  1
INAL
 73
     1
 44
1.0
  0
DIMENSION
  5
1E71
330
1F
100
AcDbEntity
  8
寸法
370
    13
100
AcDbDimension
  2
*D1
 10
2450.0
 20
3915.499999999999
 30
0.0
 11
1600.0
 21
3947.098011363635
 31
0.0
 70
    32
  1
レール
 71
     5
 42
1700.0
  3
ISO-25 1／10
100
AcDbAlignedDimension
 13
750.0
 23
3740.499999999855
 33
0.0
 14
2450.0
 24
3732.499999999845
 34
0.0
100
AcDbRotatedDimension
1001
ACAD
1000
DSTYLE
1002
{
1070
   279
1070
     1
1002
}
  0
DIMENSION
  5
1E72
330
1F
100
AcDbEntity
  8
寸法
370
    13
100
AcDbDimension
  2
*D3
 10
1604.000000000001
 20
3840.499999999999
 30
0.0
 11
1500.000000000001
 21
3840.499999999999
 31
0.0
 70
   160
  1
引残し=<>
 71
     5
 42
100.0000000000179
  3
ISO-25 1／10
100
AcDbAlignedDimension
 13
1503.999999999984
 23
3711.999999999863
 33
0.0
 14
1604.000000000001
 24
3761.500000000001
 34
0.0
100
AcDbRotatedDimension
1001
ACAD
1000
DSTYLE
1002
{
1070
   279
1070
     1
1002
}
  0
DIMENSION
  5
1E73
330
1F
100
AcDbEntity
  8
寸法
370
    13
100
AcDbDimension
  2
*D2
 10
1604.000000000001
 20
3553.499999999845
 30
0.0
 11
1177.0
 21
3588.507102272573
 31
0.0
 70
    32
  1
開口 W
 71
     5
 42
854.0000000000018
  3
ISO-25 1／10
100
AcDbAlignedDimension
 13
750.0
 23
3628.499999999846
 33
0.0
 14
1604.000000000001
 24
3740.499999999855
 34
0.0
100
AcDbRotatedDimension
1001
ACAD
1000
DSTYLE
1002
{
1070
   279
1070
     1
1002
}
  0
LWPOLYLINE
  5
1F60
102
{ACAD_REACTORS
330
1FC7
102
}
330
1F
100
AcDbEntity
  8
0
  6
ACAD_ISO07W100
 62
    41
 48
2.0
370
    13
100
AcDbPolyline
 90
        8
 70
     1
 43
0.0
 10
1508.999999999983
 20
3716.999999999863
 10
2406.999999999985
 20
3716.9999999997
 10
2407.999999999985
 20
3715.999999999699
 10
2407.999999999983
 20
3707.999999999699
 10
2406.999999999984
 20
3706.9999999997
 10
1508.999999999983
 20
3706.999999999863
 10
1507.999999999983
 20
3707.999999999863
 10
1507.999999999983
 20
3715.999999999863
  0
LWPOLYLINE
  5
1F61
102
{ACAD_REACTORS
330
1FC6
330
1FC7
102
}
330
1F
100
AcDbEntity
  8
0
  6
ACAD_ISO07W100
 62
    41
 48
2.0
370
    13
100
AcDbPolyline
 90
        4
 70
     1
 43
0.0
 10
2296.499999999987
 20
3725.999999999714
 10
2296.499999999984
 20
3717.999999999714
 10
2219.499999999984
 20
3717.999999999742
 10
2219.499999999987
 20
3725.999999999742
  0
LWPOLYLINE
  5
1F62
102
{ACAD_REACTORS
330
1FC6
330
1FC7
102
}
330
1F
100
AcDbEntity
  8
0
  6
ACAD_ISO07W100
 62
    41
 48
2.0
370
    13
100
AcDbPolyline
 90
        4
 70
     1
 43
0.0
 10
2277.249999999987
 20
3725.999999999721
 10
2277.249999999989
 20
3729.999999999721
 10
2286.749999999988
 20
3729.999999999718
 10
2286.749999999987
 20
3725.999999999718
  0
LWPOLYLINE
  5
1F63
102
{ACAD_REACTORS
330
1FC6
330
1FC7
102
}
330
1F
100
AcDbEntity
  8
0
  6
ACAD_ISO07W100
 62
    41
 48
2.0
370
    13
100
AcDbPolyline
 90
        4
 70
     1
 43
0.0
 10
2267.499999999988
 20
3729.999999999725
 10
2267.999999999991
 20
3735.999999999725
 10
2295.99999999999
 20
3735.999999999715
 10
2296.499999999988
 20
3729.999999999714
  0
LWPOLYLINE
  5
1F64
102
{ACAD_REACTORS
330
1FC6
330
1FC7
102
}
330
1F
100
AcDbEntity
  8
0
  6
ACAD_ISO07W100
 62
    41
 48
2.0
370
    13
100
AcDbPolyline
 90
        4
 70
     1
 43
0.0
 10
2277.249999999984
 20
3717.999999999721
 10
2277.249999999982
 20
3713.999999999721
 10
2286.749999999983
 20
3713.999999999717
 10
2286.749999999984
 20
3717.999999999717
  0
LWPOLYLINE
  5
1F65
102
{ACAD_REACTORS
330
1FC6
330
1FC7
102
}
330
1F
100
AcDbEntity
  8
0
  6
ACAD_ISO07W100
 62
    41
 48
2.0
370
    13
100
AcDbPolyline
 90
        4
 70
     1
 43
0.0
 10
2267.499999999982
 20
3713.999999999725
 10
2267.99999999998
 20
3707.999999999724
 10
2295.999999999981
 20
3707.999999999715
 10
2296.499999999983
 20
3713.999999999714
  0
LWPOLYLINE
  5
1F66
102
{ACAD_REACTORS
330
1FC6
330
1FC7
102
}
330
1F
100
AcDbEntity
  8
0
  6
ACAD_ISO07W100
 62
    41
 48
2.0
370
    13
100
AcDbPolyline
 90
        4
 70
     1
 43
0.0
 10
2250.999999999979
 20
3705.999999999731
 10
2250.999999999979
 20
3706.999999999731
 10
2264.99999999998
 20
3706.999999999726
 10
2264.99999999998
 20
3705.999999999726
  0
LWPOLYLINE
  5
1F67
102
{ACAD_REACTORS
330
1FC6
330
1FC7
102
}
330
1F
100
AcDbEntity
  8
0
  6
ACAD_ISO07W100
 62
    41
 48
2.0
370
    13
100
AcDbPolyline
 90
        4
 70
     1
 43
0.0
 10
2272.499999999979
 20
3706.999999999723
 10
2272.499999999979
 20
3705.999999999724
 10
2243.49999999998
 20
3705.999999999733
 10
2243.49999999998
 20
3706.999999999734
  0
LWPOLYLINE
  5
1F68
102
{ACAD_REACTORS
330
1FC6
330
1FC7
102
}
330
1F
100
AcDbEntity
  8
0
  6
ACAD_ISO07W100
 62
    41
 48
2.0
370
    13
100
AcDbPolyline
 90
        6
 70
     1
 43
0.0
 10
2242.999999999979
 20
3702.999999999734
 10
2242.99999999998
 20
3705.999999999733
 10
2272.99999999998
 20
3705.999999999723
 10
2272.999999999979
 20
3702.999999999723
 10
2270.999999999978
 20
3700.999999999724
 10
2244.999999999978
 20
3700.999999999733
  0
LWPOLYLINE
  5
1F69
102
{ACAD_REACTORS
330
1FC6
330
1FC7
102
}
330
1F
100
AcDbEntity
  8
0
  6
ACAD_ISO07W100
 62
    41
 48
2.0
370
    13
100
AcDbPolyline
 90
        6
 70
     1
 43
0.0
 10
2272.999999999988
 20
3728.999999999722
 10
2272.999999999987
 20
3725.999999999723
 10
2242.999999999987
 20
3725.999999999734
 10
2242.999999999988
 20
3728.999999999734
 10
2244.999999999989
 20
3730.999999999733
 10
2270.999999999989
 20
3730.999999999724
  0
LWPOLYLINE
  5
1F6A
102
{ACAD_REACTORS
330
1FC6
330
1FC7
102
}
330
1F
100
AcDbEntity
  8
0
  6
ACAD_ISO07W100
 62
    41
 48
2.0
370
    13
100
AcDbPolyline
 90
        4
 70
     1
 43
0.0
 10
2272.499999999984
 20
3717.999999999723
 10
2272.499999999983
 20
3716.999999999723
 10
2243.499999999983
 20
3716.999999999734
 10
2243.499999999984
 20
3717.999999999734
  0
LWPOLYLINE
  5
1F6B
102
{ACAD_REACTORS
330
1FC6
330
1FC7
102
}
330
1F
100
AcDbEntity
  8
0
  6
ACAD_ISO07W100
 62
    41
 48
2.0
370
    13
100
AcDbPolyline
 90
        4
 70
     1
 43
0.0
 10
2264.999999999987
 20
3725.999999999726
 10
2264.999999999981
 20
3708.999999999726
 10
2250.999999999981
 20
3708.999999999731
 10
2250.999999999987
 20
3725.999999999731
  0
LWPOLYLINE
  5
1F6C
102
{ACAD_REACTORS
330
1FC6
330
1FC7
102
}
330
1F
100
AcDbEntity
  8
0
  6
ACAD_ISO07W100
 62
    41
 48
2.0
370
    13
100
AcDbPolyline
 90
        4
 70
     1
 43
0.0
 10
2262.999999999983
 20
3713.999999999726
 10
2262.999999999979
 20
3706.999999999726
 10
2252.99999999998
 20
3706.99999999973
 10
2252.999999999982
 20
3713.99999999973
  0
LWPOLYLINE
  5
1F6D
102
{ACAD_REACTORS
330
1FC6
330
1FC7
102
}
330
1F
100
AcDbEntity
  8
0
  6
ACAD_ISO07W100
 62
    41
 48
2.0
370
    13
100
AcDbPolyline
 90
        4
 70
     1
 43
0.0
 10
2266.499999999983
 20
3716.999999999725
 10
2266.499999999981
 20
3709.999999999725
 10
2249.499999999982
 20
3709.999999999731
 10
2249.499999999983
 20
3716.999999999731
  0
LWPOLYLINE
  5
1F6E
102
{ACAD_REACTORS
330
1FC6
330
1FC7
102
}
330
1F
100
AcDbEntity
  8
0
  6
ACAD_ISO07W100
 62
    41
 48
2.0
370
    13
100
AcDbPolyline
 90
        4
 70
     1
 43
0.0
 10
2238.749999999984
 20
3717.999999999735
 10
2238.749999999983
 20
3713.999999999735
 10
2229.249999999982
 20
3713.999999999739
 10
2229.249999999984
 20
3717.999999999739
  0
LWPOLYLINE
  5
1F6F
102
{ACAD_REACTORS
330
1FC6
330
1FC7
102
}
330
1F
100
AcDbEntity
  8
0
  6
ACAD_ISO07W100
 62
    41
 48
2.0
370
    13
100
AcDbPolyline
 90
        4
 70
     1
 43
0.0
 10
2248.499999999983
 20
3713.999999999732
 10
2247.999999999981
 20
3707.999999999731
 10
2219.999999999981
 20
3707.999999999742
 10
2219.499999999982
 20
3713.999999999742
  0
LWPOLYLINE
  5
1F70
102
{ACAD_REACTORS
330
1FC6
330
1FC7
102
}
330
1F
100
AcDbEntity
  8
0
  6
ACAD_ISO07W100
 62
    41
 48
2.0
370
    13
100
AcDbPolyline
 90
        4
 70
     1
 43
0.0
 10
2248.499999999989
 20
3729.999999999732
 10
2247.99999999999
 20
3735.999999999732
 10
2219.999999999991
 20
3735.999999999743
 10
2219.499999999988
 20
3729.999999999742
  0
LWPOLYLINE
  5
1F71
102
{ACAD_REACTORS
330
1FC6
330
1FC7
102
}
330
1F
100
AcDbEntity
  8
0
  6
ACAD_ISO07W100
 62
    41
 48
2.0
370
    13
100
AcDbPolyline
 90
        4
 70
     1
 43
0.0
 10
2238.749999999987
 20
3725.999999999736
 10
2238.749999999989
 20
3729.999999999736
 10
2229.249999999989
 20
3729.999999999739
 10
2229.249999999987
 20
3725.999999999739
  0
LWPOLYLINE
  5
1F72
102
{ACAD_REACTORS
330
1FC5
330
1FC7
102
}
330
1F
100
AcDbEntity
  8
0
  6
ACAD_ISO07W100
 62
    41
 48
2.0
370
    13
100
AcDbPolyline
 90
        4
 70
     1
 43
0.0
 10
1619.499999999984
 20
3725.999999999837
 10
1619.499999999984
 20
3717.999999999838
 10
1696.499999999984
 20
3717.999999999838
 10
1696.499999999984
 20
3725.999999999837
  0
LWPOLYLINE
  5
1F73
102
{ACAD_REACTORS
330
1FC5
330
1FC7
102
}
330
1F
100
AcDbEntity
  8
0
  6
ACAD_ISO07W100
 62
    41
 48
2.0
370
    13
100
AcDbPolyline
 90
        4
 70
     1
 43
0.0
 10
1677.249999999984
 20
3717.999999999838
 10
1677.249999999984
 20
3713.999999999838
 10
1686.749999999984
 20
3713.999999999838
 10
1686.749999999984
 20
3717.999999999838
  0
LWPOLYLINE
  5
1F74
102
{ACAD_REACTORS
330
1FC5
330
1FC7
102
}
330
1F
100
AcDbEntity
  8
0
  6
ACAD_ISO07W100
 62
    41
 48
2.0
370
    13
100
AcDbPolyline
 90
        4
 70
     1
 43
0.0
 10
1667.499999999984
 20
3713.999999999838
 10
1667.999999999984
 20
3707.999999999838
 10
1695.999999999984
 20
3707.999999999838
 10
1696.499999999984
 20
3713.999999999838
  0
LWPOLYLINE
  5
1F75
102
{ACAD_REACTORS
330
1FC5
330
1FC7
102
}
330
1F
100
AcDbEntity
  8
0
  6
ACAD_ISO07W100
 62
    41
 48
2.0
370
    13
100
AcDbPolyline
 90
        4
 70
     1
 43
0.0
 10
1638.749999999984
 20
3725.999999999837
 10
1638.749999999984
 20
3729.999999999837
 10
1629.249999999984
 20
3729.999999999837
 10
1629.249999999984
 20
3725.999999999837
  0
LWPOLYLINE
  5
1F76
102
{ACAD_REACTORS
330
1FC5
330
1FC7
102
}
330
1F
100
AcDbEntity
  8
0
  6
ACAD_ISO07W100
 62
    41
 48
2.0
370
    13
100
AcDbPolyline
 90
        4
 70
     1
 43
0.0
 10
1648.499999999984
 20
3729.999999999837
 10
1647.999999999984
 20
3735.999999999838
 10
1619.999999999984
 20
3735.999999999838
 10
1619.499999999984
 20
3729.999999999837
  0
LWPOLYLINE
  5
1F77
102
{ACAD_REACTORS
330
1FC5
330
1FC7
102
}
330
1F
100
AcDbEntity
  8
0
  6
ACAD_ISO07W100
 62
    41
 48
2.0
370
    13
100
AcDbPolyline
 90
        4
 70
     1
 43
0.0
 10
1638.749999999984
 20
3717.999999999838
 10
1638.749999999984
 20
3713.999999999838
 10
1629.249999999984
 20
3713.999999999838
 10
1629.249999999984
 20
3717.999999999838
  0
LWPOLYLINE
  5
1F78
102
{ACAD_REACTORS
330
1FC5
330
1FC7
102
}
330
1F
100
AcDbEntity
  8
0
  6
ACAD_ISO07W100
 62
    41
 48
2.0
370
    13
100
AcDbPolyline
 90
        4
 70
     1
 43
0.0
 10
1648.499999999984
 20
3713.999999999838
 10
1647.999999999984
 20
3707.999999999838
 10
1619.999999999984
 20
3707.999999999838
 10
1619.499999999984
 20
3713.999999999838
  0
LWPOLYLINE
  5
1F79
102
{ACAD_REACTORS
330
1FC5
330
1FC7
102
}
330
1F
100
AcDbEntity
  8
0
  6
ACAD_ISO07W100
 62
    41
 48
2.0
370
    13
100
AcDbPolyline
 90
        4
 70
     1
 43
0.0
 10
1664.999999999984
 20
3705.999999999837
 10
1664.999999999984
 20
3706.999999999838
 10
1650.999999999984
 20
3706.999999999838
 10
1650.999999999984
 20
3705.999999999837
  0
LWPOLYLINE
  5
1F7A
102
{ACAD_REACTORS
330
1FC5
330
1FC7
102
}
330
1F
100
AcDbEntity
  8
0
  6
ACAD_ISO07W100
 62
    41
 48
2.0
370
    13
100
AcDbPolyline
 90
        4
 70
     1
 43
0.0
 10
1643.499999999984
 20
3706.999999999838
 10
1643.499999999984
 20
3705.999999999837
 10
1672.499999999984
 20
3705.999999999837
 10
1672.499999999984
 20
3706.999999999838
  0
LWPOLYLINE
  5
1F7B
102
{ACAD_REACTORS
330
1FC5
330
1FC7
102
}
330
1F
100
AcDbEntity
  8
0
  6
ACAD_ISO07W100
 62
    41
 48
2.0
370
    13
100
AcDbPolyline
 90
        6
 70
     1
 43
0.0
 10
1672.999999999984
 20
3702.999999999837
 10
1672.999999999984
 20
3705.999999999837
 10
1642.999999999984
 20
3705.999999999837
 10
1642.999999999984
 20
3702.999999999837
 10
1644.999999999984
 20
3700.999999999837
 10
1670.999999999984
 20
3700.999999999837
  0
LWPOLYLINE
  5
1F7C
102
{ACAD_REACTORS
330
1FC5
330
1FC7
102
}
330
1F
100
AcDbEntity
  8
0
  6
ACAD_ISO07W100
 62
    41
 48
2.0
370
    13
100
AcDbPolyline
 90
        6
 70
     1
 43
0.0
 10
1642.999999999984
 20
3728.999999999837
 10
1642.999999999984
 20
3725.999999999837
 10
1672.999999999984
 20
3725.999999999837
 10
1672.999999999984
 20
3728.999999999837
 10
1670.999999999984
 20
3730.999999999837
 10
1644.999999999984
 20
3730.999999999837
  0
LWPOLYLINE
  5
1F7D
102
{ACAD_REACTORS
330
1FC5
330
1FC7
102
}
330
1F
100
AcDbEntity
  8
0
  6
ACAD_ISO07W100
 62
    41
 48
2.0
370
    13
100
AcDbPolyline
 90
        4
 70
     1
 43
0.0
 10
1643.499999999984
 20
3717.999999999838
 10
1643.499999999984
 20
3716.999999999837
 10
1672.499999999984
 20
3716.999999999837
 10
1672.499999999984
 20
3717.999999999838
  0
LWPOLYLINE
  5
1F7E
102
{ACAD_REACTORS
330
1FC5
330
1FC7
102
}
330
1F
100
AcDbEntity
  8
0
  6
ACAD_ISO07W100
 62
    41
 48
2.0
370
    13
100
AcDbPolyline
 90
        4
 70
     1
 43
0.0
 10
1650.999999999984
 20
3725.999999999837
 10
1650.999999999984
 20
3708.999999999837
 10
1664.999999999984
 20
3708.999999999837
 10
1664.999999999984
 20
3725.999999999837
  0
LWPOLYLINE
  5
1F7F
102
{ACAD_REACTORS
330
1FC5
330
1FC7
102
}
330
1F
100
AcDbEntity
  8
0
  6
ACAD_ISO07W100
 62
    41
 48
2.0
370
    13
100
AcDbPolyline
 90
        4
 70
     1
 43
0.0
 10
1652.999999999984
 20
3713.999999999838
 10
1652.999999999984
 20
3706.999999999838
 10
1662.999999999984
 20
3706.999999999838
 10
1662.999999999984
 20
3713.999999999838
  0
LWPOLYLINE
  5
1F80
102
{ACAD_REACTORS
330
1FC5
330
1FC7
102
}
330
1F
100
AcDbEntity
  8
0
  6
ACAD_ISO07W100
 62
    41
 48
2.0
370
    13
100
AcDbPolyline
 90
        4
 70
     1
 43
0.0
 10
1649.499999999984
 20
3716.999999999837
 10
1649.499999999984
 20
3709.999999999837
 10
1666.499999999984
 20
3709.999999999837
 10
1666.499999999984
 20
3716.999999999837
  0
LWPOLYLINE
  5
1F81
102
{ACAD_REACTORS
330
1FC5
330
1FC7
102
}
330
1F
100
AcDbEntity
  8
0
  6
ACAD_ISO07W100
 62
    41
 48
2.0
370
    13
100
AcDbPolyline
 90
        4
 70
     1
 43
0.0
 10
1667.499999999984
 20
3729.999999999837
 10
1667.999999999984
 20
3735.999999999838
 10
1695.999999999984
 20
3735.999999999838
 10
1696.499999999984
 20
3729.999999999837
  0
LWPOLYLINE
  5
1F82
102
{ACAD_REACTORS
330
1FC5
330
1FC7
102
}
330
1F
100
AcDbEntity
  8
0
  6
ACAD_ISO07W100
 62
    41
 48
2.0
370
    13
100
AcDbPolyline
 90
        4
 70
     1
 43
0.0
 10
1677.249999999984
 20
3725.999999999837
 10
1677.249999999984
 20
3729.999999999837
 10
1686.749999999984
 20
3729.999999999837
 10
1686.749999999984
 20
3725.999999999837
  0
LINE
  5
1F83
102
{ACAD_REACTORS
330
1FC4
330
1FC7
102
}
330
1F
100
AcDbEntity
  8
0
  6
ACAD_ISO07W100
 62
    41
 48
2.0
370
    13
100
AcDbLine
 10
1540.748525550832
 20
3695.70013559279
 30
0.0
 11
1595.254919914093
 21
3695.70013559278
 31
0.0
  0
LINE
  5
1F84
102
{ACAD_REACTORS
330
1FC4
330
1FC7
102
}
330
1F
100
AcDbEntity
  8
0
  6
ACAD_ISO07W100
 62
    41
 48
2.0
370
    13
100
AcDbLine
 10
1594.751882029356
 20
3695.198820440528
 30
0.0
 11
1541.248117970604
 21
3695.198820440538
 31
0.0
  0
LINE
  5
1F85
102
{ACAD_REACTORS
330
1FC4
330
1FC7
102
}
330
1F
100
AcDbEntity
  8
0
  6
ACAD_ISO07W100
 62
    41
 48
2.0
370
    13
100
AcDbLine
 10
1594.751882029356
 20
3695.198820440528
 30
0.0
 11
1595.254919914093
 21
3695.70013559278
 31
0.0
  0
LINE
  5
1F86
102
{ACAD_REACTORS
330
1FC4
330
1FC7
102
}
330
1F
100
AcDbEntity
  8
0
  6
ACAD_ISO07W100
 62
    41
 48
2.0
370
    13
100
AcDbLine
 10
1595.254919914093
 20
3697.698505271864
 30
0.0
 11
1595.254919914093
 21
3695.70013559278
 31
0.0
  0
LINE
  5
1F87
102
{ACAD_REACTORS
330
1FC4
330
1FC7
102
}
330
1F
100
AcDbEntity
  8
0
  6
ACAD_ISO07W100
 62
    41
 48
2.0
370
    13
100
AcDbLine
 10
1595.421163598608
 20
3726.001277218133
 30
0.0
 11
1540.578836401364
 21
3726.001277218142
 31
0.0
  0
LINE
  5
1F88
102
{ACAD_REACTORS
330
1FC4
330
1FC7
102
}
330
1F
100
AcDbEntity
  8
0
  6
ACAD_ISO07W100
 62
    41
 48
2.0
370
    13
100
AcDbLine
 10
1540.748525550832
 20
3697.698505271874
 30
0.0
 11
1595.254919914093
 21
3697.698505271864
 31
0.0
  0
LINE
  5
1F89
102
{ACAD_REACTORS
330
1FC4
330
1FC7
102
}
330
1F
100
AcDbEntity
  8
0
  6
ACAD_ISO07W100
 62
    41
 48
2.0
370
    13
100
AcDbLine
 10
1539.999136921176
 20
3698.449616634013
 30
0.0
 11
1596.00430854375
 21
3698.449616634003
 31
0.0
  0
LINE
  5
1F8A
102
{ACAD_REACTORS
330
1FC4
330
1FC7
102
}
330
1F
100
AcDbEntity
  8
0
  6
ACAD_ISO07W100
 62
    41
 48
2.0
370
    13
100
AcDbLine
 10
1539.999136921176
 20
3699.245519040679
 30
0.0
 11
1596.00430854375
 21
3699.245519040669
 31
0.0
  0
LINE
  5
1F8B
102
{ACAD_REACTORS
330
1FC4
330
1FC7
102
}
330
1F
100
AcDbEntity
  8
0
  6
ACAD_ISO07W100
 62
    41
 48
2.0
370
    13
100
AcDbLine
 10
1538.247117987016
 20
3721.001907555471
 30
0.0
 11
1597.756327477914
 21
3721.00190755546
 31
0.0
  0
LINE
  5
1F8C
102
{ACAD_REACTORS
330
1FC4
330
1FC7
102
}
330
1F
100
AcDbEntity
  8
0
  6
ACAD_ISO07W100
 62
    41
 48
2.0
370
    13
100
AcDbLine
 10
1597.756327477911
 20
3702.999353118883
 30
0.0
 11
1538.247117987013
 21
3702.999353118893
 31
0.0
  0
LINE
  5
1F8D
102
{ACAD_REACTORS
330
1FC4
330
1FC7
102
}
330
1F
100
AcDbEntity
  8
0
  6
ACAD_ISO07W100
 62
    41
 48
2.0
370
    13
100
AcDbLine
 10
1538.247117987013
 20
3702.999353118893
 30
0.0
 11
1538.247117987015
 21
3706.998676575784
 31
0.0
  0
LINE
  5
1F8E
102
{ACAD_REACTORS
330
1FC4
330
1FC7
102
}
330
1F
100
AcDbEntity
  8
0
  6
ACAD_ISO07W100
 62
    41
 48
2.0
370
    13
100
AcDbLine
 10
1538.247117987016
 20
3721.001907555471
 30
0.0
 11
1538.247117987016
 21
3716.999999999858
 31
0.0
  0
LINE
  5
1F8F
102
{ACAD_REACTORS
330
1FC4
330
1FC7
102
}
330
1F
100
AcDbEntity
  8
0
  6
ACAD_ISO07W100
 62
    41
 48
2.0
370
    13
100
AcDbLine
 10
1540.748525550832
 20
3697.698505271874
 30
0.0
 11
1539.999136921176
 21
3698.449616634013
 31
0.0
  0
LINE
  5
1F90
102
{ACAD_REACTORS
330
1FC4
330
1FC7
102
}
330
1F
100
AcDbEntity
  8
0
  6
ACAD_ISO07W100
 62
    41
 48
2.0
370
    13
100
AcDbLine
 10
1540.748525550832
 20
3697.698505271874
 30
0.0
 11
1540.748525550832
 21
3695.70013559279
 31
0.0
  0
LINE
  5
1F91
102
{ACAD_REACTORS
330
1FC4
330
1FC7
102
}
330
1F
100
AcDbEntity
  8
0
  6
ACAD_ISO07W100
 62
    41
 48
2.0
370
    13
100
AcDbLine
 10
1541.248117970604
 20
3695.198820440538
 30
0.0
 11
1540.748525550832
 21
3695.70013559279
 31
0.0
  0
LINE
  5
1F92
102
{ACAD_REACTORS
330
1FC4
330
1FC7
102
}
330
1F
100
AcDbEntity
  8
0
  6
ACAD_ISO07W100
 62
    41
 48
2.0
370
    13
100
AcDbLine
 10
1539.997414188694
 20
3699.245519040679
 30
0.0
 11
1539.997414188694
 21
3698.447893901526
 31
0.0
  0
LINE
  5
1F93
102
{ACAD_REACTORS
330
1FC4
330
1FC7
102
}
330
1F
100
AcDbEntity
  8
0
  6
ACAD_ISO07W100
 62
    41
 48
2.0
370
    13
100
AcDbLine
 10
1540.610706952274
 20
3699.245519040679
 30
0.0
 11
1540.610706952274
 21
3697.83632387043
 31
0.0
  0
LINE
  5
1F94
102
{ACAD_REACTORS
330
1FC4
330
1FC7
102
}
330
1F
100
AcDbEntity
  8
0
  6
ACAD_ISO07W100
 62
    41
 48
2.0
370
    13
100
AcDbLine
 10
1539.999136921176
 20
3698.449616634013
 30
0.0
 11
1539.999136921176
 21
3699.245519040679
 31
0.0
  0
LINE
  5
1F95
102
{ACAD_REACTORS
330
1FC4
330
1FC7
102
}
330
1F
100
AcDbEntity
  8
0
  6
ACAD_ISO07W100
 62
    41
 48
2.0
370
    13
100
AcDbLine
 10
1540.578836401364
 20
3726.001277218142
 30
0.0
 11
1538.247117987016
 21
3721.001907555471
 31
0.0
  0
LINE
  5
1F96
102
{ACAD_REACTORS
330
1FC4
330
1FC7
102
}
330
1F
100
AcDbEntity
  8
0
  6
ACAD_ISO07W100
 62
    41
 48
2.0
370
    13
100
AcDbLine
 10
1539.999136921176
 20
3699.245519040679
 30
0.0
 11
1538.247117987013
 21
3702.999353118893
 31
0.0
  0
LINE
  5
1F97
102
{ACAD_REACTORS
330
1FC4
330
1FC7
102
}
330
1F
100
AcDbEntity
  8
0
  6
ACAD_ISO07W100
 62
    41
 48
2.0
370
    13
100
AcDbLine
 10
1595.421163598608
 20
3726.001277218133
 30
0.0
 11
1597.756327477914
 21
3721.00190755546
 31
0.0
  0
LINE
  5
1F98
102
{ACAD_REACTORS
330
1FC4
330
1FC7
102
}
330
1F
100
AcDbEntity
  8
0
  6
ACAD_ISO07W100
 62
    41
 48
2.0
370
    13
100
AcDbLine
 10
1595.254919914093
 20
3697.698505271864
 30
0.0
 11
1596.00430854375
 21
3698.449616634003
 31
0.0
  0
LINE
  5
1F99
102
{ACAD_REACTORS
330
1FC4
330
1FC7
102
}
330
1F
100
AcDbEntity
  8
0
  6
ACAD_ISO07W100
 62
    41
 48
2.0
370
    13
100
AcDbLine
 10
1596.002585811267
 20
3698.447893901515
 30
0.0
 11
1596.002585811267
 21
3699.245519040669
 31
0.0
  0
LINE
  5
1F9A
102
{ACAD_REACTORS
330
1FC4
330
1FC7
102
}
330
1F
100
AcDbEntity
  8
0
  6
ACAD_ISO07W100
 62
    41
 48
2.0
370
    13
100
AcDbLine
 10
1595.392738512649
 20
3697.83632387042
 30
0.0
 11
1595.392738512649
 21
3699.245519040669
 31
0.0
  0
LINE
  5
1F9B
102
{ACAD_REACTORS
330
1FC4
330
1FC7
102
}
330
1F
100
AcDbEntity
  8
0
  6
ACAD_ISO07W100
 62
    41
 48
2.0
370
    13
100
AcDbLine
 10
1596.00430854375
 20
3698.449616634003
 30
0.0
 11
1596.00430854375
 21
3699.245519040669
 31
0.0
  0
LINE
  5
1F9C
102
{ACAD_REACTORS
330
1FC4
330
1FC7
102
}
330
1F
100
AcDbEntity
  8
0
  6
ACAD_ISO07W100
 62
    41
 48
2.0
370
    13
100
AcDbLine
 10
1596.00430854375
 20
3699.245519040669
 30
0.0
 11
1597.756327477911
 21
3702.999353118883
 31
0.0
  0
LINE
  5
1F9D
102
{ACAD_REACTORS
330
1FC4
330
1FC7
102
}
330
1F
100
AcDbEntity
  8
0
  6
ACAD_ISO07W100
 62
    41
 48
2.0
370
    13
100
AcDbLine
 10
1597.756327477911
 20
3702.999353118883
 30
0.0
 11
1597.756327477912
 21
3706.998676575772
 31
0.0
  0
LINE
  5
1F9E
102
{ACAD_REACTORS
330
1FC4
330
1FC7
102
}
330
1F
100
AcDbEntity
  8
0
  6
ACAD_ISO07W100
 62
    41
 48
2.0
370
    13
100
AcDbLine
 10
1597.756327477914
 20
3721.00190755546
 30
0.0
 11
1597.756327477914
 21
3716.999999999846
 31
0.0
  0
LINE
  5
1F9F
102
{ACAD_REACTORS
330
1FC3
330
1FC7
102
}
330
1F
100
AcDbEntity
  8
0
  6
ACAD_ISO07W100
 62
    41
 48
2.0
370
    13
100
AcDbLine
 10
1507.999999999983
 20
3706.606866858985
 30
0.0
 11
1507.999999999983
 21
3717.393133140741
 31
0.0
  0
LINE
  5
1FA0
102
{ACAD_REACTORS
330
1FC3
330
1FC7
102
}
330
1F
100
AcDbEntity
  8
0
  6
ACAD_ISO07W100
 62
    41
 48
2.0
370
    13
100
AcDbLine
 10
1516.950078044903
 20
3706.675472609784
 30
0.0
 11
1516.260156813262
 21
3707.717829887368
 31
0.0
  0
LINE
  5
1FA1
102
{ACAD_REACTORS
330
1FC3
330
1FC7
102
}
330
1F
100
AcDbEntity
  8
0
  6
ACAD_ISO07W100
 62
    41
 48
2.0
370
    13
100
AcDbLine
 10
1509.499999999983
 20
3716.999999999863
 30
0.0
 11
1509.499999999983
 21
3717.421206619359
 31
0.0
  0
LINE
  5
1FA2
102
{ACAD_REACTORS
330
1FC3
330
1FC7
102
}
330
1F
100
AcDbEntity
  8
0
  6
ACAD_ISO07W100
 62
    41
 48
2.0
370
    13
100
AcDbLine
 10
1509.999999999983
 20
3716.999999999863
 30
0.0
 11
1509.999999999983
 21
3717.427023058728
 31
0.0
  0
LINE
  5
1FA3
102
{ACAD_REACTORS
330
1FC3
330
1FC7
102
}
330
1F
100
AcDbEntity
  8
0
  6
ACAD_ISO07W100
 62
    41
 48
2.0
370
    13
100
AcDbLine
 10
1516.714398756421
 20
3717.511995136322
 30
0.0
 11
1516.009991066644
 21
3716.447751207953
 31
0.0
  0
ARC
  5
1FA4
102
{ACAD_REACTORS
330
1FC3
330
1FC7
102
}
330
1F
100
AcDbEntity
  8
0
  6
ACAD_ISO07W100
 62
    41
 48
2.0
370
    13
100
AcDbCircle
 10
1516.135073939954
 20
3707.635039339571
 30
0.0
 40
0.1500000000000026
100
AcDbArc
 50
33.50000000000621
 51
213.5000000000065
  0
LINE
  5
1FA5
102
{ACAD_REACTORS
330
1FC3
330
1FC7
102
}
330
1F
100
AcDbEntity
  8
0
  6
ACAD_ISO07W100
 62
    41
 48
2.0
370
    13
100
AcDbLine
 10
1509.499999999983
 20
3716.999999999863
 30
0.0
 11
1509.999999999983
 21
3716.999999999863
 31
0.0
  0
ARC
  5
1FA6
102
{ACAD_REACTORS
330
1FC3
330
1FC7
102
}
330
1F
100
AcDbEntity
  8
0
  6
ACAD_ISO07W100
 62
    41
 48
2.0
370
    13
100
AcDbCircle
 10
1516.135073939954
 20
3716.364960660154
 30
0.0
 40
0.1500000000000026
100
AcDbArc
 50
146.4999999999934
 51
326.4999999999938
  0
ARC
  5
1FA7
102
{ACAD_REACTORS
330
1FC3
330
1FC7
102
}
330
1F
100
AcDbEntity
  8
0
  6
ACAD_ISO07W100
 62
    41
 48
2.0
370
    13
100
AcDbCircle
 10
1511.392939402194
 20
3576.191713211291
 30
0.0
 40
141.2421786432081
100
AcDbArc
 50
90.76790578212861
 51
91.37649965166987
  0
LINE
  5
1FA8
102
{ACAD_REACTORS
330
1FC3
330
1FC7
102
}
330
1F
100
AcDbEntity
  8
0
  6
ACAD_ISO07W100
 62
    41
 48
2.0
370
    13
100
AcDbLine
 10
1515.282344746155
 20
3717.374354629269
 30
0.0
 11
1515.415192122943
 21
3717.541366671349
 31
0.0
  0
ARC
  5
1FA9
102
{ACAD_REACTORS
330
1FC3
330
1FC7
102
}
330
1F
100
AcDbEntity
  8
0
  6
ACAD_ISO07W100
 62
    41
 48
2.0
370
    13
100
AcDbCircle
 10
1512.868349979186
 20
3576.172127525441
 30
0.0
 40
141.3921786436514
100
AcDbArc
 50
88.44079706428201
 51
88.96789766323832
  0
ARC
  5
1FAA
102
{ACAD_REACTORS
330
1FC3
330
1FC7
102
}
330
1F
100
AcDbEntity
  8
0
  6
ACAD_ISO07W100
 62
    41
 48
2.0
370
    13
100
AcDbCircle
 10
1511.392939402194
 20
3576.191713211291
 30
0.0
 40
141.2421786432081
100
AcDbArc
 50
88.42053739529076
 51
90.56506380320946
  0
LINE
  5
1FAB
102
{ACAD_REACTORS
330
1FC3
330
1FC7
102
}
330
1F
100
AcDbEntity
  8
0
  6
ACAD_ISO07W100
 62
    41
 48
2.0
370
    13
100
AcDbLine
 10
1516.950078044903
 20
3717.324527389942
 30
0.0
 11
1516.260156813262
 21
3716.282170112358
 31
0.0
  0
ARC
  5
1FAC
102
{ACAD_REACTORS
330
1FC3
330
1FC7
102
}
330
1F
100
AcDbEntity
  8
0
  6
ACAD_ISO07W100
 62
    41
 48
2.0
370
    13
100
AcDbCircle
 10
1510.275348430923
 20
3575.905145930603
 30
0.0
 40
142.7421786436514
100
AcDbArc
 50
86.24129363898159
 51
91.47542394584945
  0
ELLIPSE
  5
1FAD
102
{ACAD_REACTORS
330
1FC3
330
1FC7
102
}
330
1F
100
AcDbEntity
  8
0
  6
ACAD_ISO07W100
 62
    41
 48
2.0
370
    13
100
AcDbEllipse
 10
1506.599999999983
 20
3711.999999999863
 30
0.0
 11
0.0
 21
-3.0
 31
0.0
210
0.0
220
0.0
230
1.0
 40
0.8666666666666364
 41
3.141592653589793
 42
6.283185307179586
  0
SPLINE
  5
1FAE
102
{ACAD_REACTORS
330
1FC3
330
1FC7
102
}
330
1F
100
AcDbEntity
  8
0
  6
ACAD_ISO07W100
 62
    41
 48
2.0
370
    13
100
AcDbSpline
210
0.0
220
0.0
230
1.0
 70
     8
 71
     3
 72
    20
 73
    16
 74
     0
 42
0.0000000001
 43
0.0000000001
 40
3.141592653589792
 40
3.141592653589792
 40
3.141592653589792
 40
3.141592653589792
 40
3.515772299437363
 40
3.515772299437363
 40
4.012466711112016
 40
4.012466711112016
 40
4.509161122786667
 40
4.509161122786667
 40
5.00585553446132
 40
5.00585553446132
 40
5.502549946135971
 40
5.502549946135971
 40
5.999244357810622
 40
5.999244357810622
 40
6.283185307179585
 40
6.283185307179585
 40
6.283185307179585
 40
6.283185307179585
 10
1506.599999999983
 20
3714.399999999863
 30
0.0
 10
1506.362060122624
 20
3714.399999999863
 30
0.0
 10
1506.123832146271
 20
3714.348544572434
 30
0.0
 10
1505.596595110548
 20
3714.109657879943
 30
0.0
 10
1505.316611289552
 20
3713.881117187746
 30
0.0
 10
1504.875234220676
 20
3713.276381808323
 30
0.0
 10
1504.715752163079
 20
3712.900858559823
 30
0.0
 10
1504.572570802867
 20
3712.099154947386
 30
0.0
 10
1504.589335819837
 20
3711.674598943829
 30
0.0
 10
1504.793828662688
 20
3710.893793000964
 30
0.0
 10
1504.980857778276
 20
3710.53912967773
 30
0.0
 10
1505.462850356423
 20
3709.988256943138
 30
0.0
 10
1505.755747141427
 20
3709.79224638242
 30
0.0
 10
1506.238807440225
 20
3709.629589200919
 30
0.0
 10
1506.419442678334
 20
3709.599999999863
 30
0.0
 10
1506.599999999983
 20
3709.599999999863
 30
0.0
  0
ARC
  5
1FAF
102
{ACAD_REACTORS
330
1FC3
330
1FC7
102
}
330
1F
100
AcDbEntity
  8
0
  6
ACAD_ISO07W100
 62
    41
 48
2.0
370
    13
100
AcDbCircle
 10
1510.275348430923
 20
3848.094854069123
 30
0.0
 40
142.7421786436514
100
AcDbArc
 50
268.5245760541504
 51
273.7587063610183
  0
LINE
  5
1FB0
102
{ACAD_REACTORS
330
1FC3
330
1FC7
102
}
330
1F
100
AcDbEntity
  8
0
  6
ACAD_ISO07W100
 62
    41
 48
2.0
370
    13
100
AcDbLine
 10
1516.950078030995
 20
3706.675472623214
 30
0.0
 11
1516.714398756421
 21
3706.488004863404
 31
0.0
  0
LINE
  5
1FB1
102
{ACAD_REACTORS
330
1FC3
330
1FC7
102
}
330
1F
100
AcDbEntity
  8
0
  6
ACAD_ISO07W100
 62
    41
 48
2.0
370
    13
100
AcDbLine
 10
1516.950078030995
 20
3717.324527376511
 30
0.0
 11
1516.714398756421
 21
3717.511995136322
 31
0.0
  0
LINE
  5
1FB2
102
{ACAD_REACTORS
330
1FC3
330
1FC7
102
}
330
1F
100
AcDbEntity
  8
0
  6
ACAD_ISO07W100
 62
    41
 48
2.0
370
    13
100
AcDbLine
 10
1520.099999999983
 20
3717.377830869235
 30
0.0
 11
1520.099999999983
 21
3717.841357865432
 31
0.0
  0
ARC
  5
1FB3
102
{ACAD_REACTORS
330
1FC3
330
1FC7
102
}
330
1F
100
AcDbEntity
  8
0
  6
ACAD_ISO07W100
 62
    41
 48
2.0
370
    13
100
AcDbCircle
 10
1519.599999999983
 20
3717.841357865432
 30
0.0
 40
0.5
100
AcDbArc
 50
0.000000000000007
 51
86.24129363898163
  0
ARC
  5
1FB4
102
{ACAD_REACTORS
330
1FC3
330
1FC7
102
}
330
1F
100
AcDbEntity
  8
0
  6
ACAD_ISO07W100
 62
    41
 48
2.0
370
    13
100
AcDbCircle
 10
1511.392939402183
 20
3576.191713210848
 30
0.0
 40
141.2421786436514
100
AcDbArc
 50
86.55185588727041
 51
87.74512968719943
  0
ARC
  5
1FB5
102
{ACAD_REACTORS
330
1FC3
330
1FC7
102
}
330
1F
100
AcDbEntity
  8
0
  6
ACAD_ISO07W100
 62
    41
 48
2.0
370
    13
100
AcDbCircle
 10
1511.392939402183
 20
3847.808286788879
 30
0.0
 40
141.2421786436514
100
AcDbArc
 50
272.2548703128005
 51
273.4481441127295
  0
LINE
  5
1FB6
102
{ACAD_REACTORS
330
1FC3
330
1FC7
102
}
330
1F
100
AcDbEntity
  8
0
  6
ACAD_ISO07W100
 62
    41
 48
2.0
370
    13
100
AcDbLine
 10
1520.099999999983
 20
3706.622169130492
 30
0.0
 11
1520.099999999983
 21
3706.158642134294
 31
0.0
  0
ARC
  5
1FB7
102
{ACAD_REACTORS
330
1FC3
330
1FC7
102
}
330
1F
100
AcDbEntity
  8
0
  6
ACAD_ISO07W100
 62
    41
 48
2.0
370
    13
100
AcDbCircle
 10
1519.899999999984
 20
3706.622169130492
 30
0.0
 40
0.2
100
AcDbArc
 50
0.000000000000007
 51
93.44814411272963
  0
ARC
  5
1FB8
102
{ACAD_REACTORS
330
1FC3
330
1FC7
102
}
330
1F
100
AcDbEntity
  8
0
  6
ACAD_ISO07W100
 62
    41
 48
2.0
370
    13
100
AcDbCircle
 10
1519.599999999983
 20
3706.158642134294
 30
0.0
 40
0.5
100
AcDbArc
 50
273.7587063610183
 51
0.000000000000007
  0
ARC
  5
1FB9
102
{ACAD_REACTORS
330
1FC3
330
1FC7
102
}
330
1F
100
AcDbEntity
  8
0
  6
ACAD_ISO07W100
 62
    41
 48
2.0
370
    13
100
AcDbCircle
 10
1519.899999999984
 20
3717.377830869235
 30
0.0
 40
0.2
100
AcDbArc
 50
266.5518558872704
 51
0.000000000000007
  0
ARC
  5
1FBA
102
{ACAD_REACTORS
330
1FC3
330
1FC7
102
}
330
1F
100
AcDbEntity
  8
0
  6
ACAD_ISO07W100
 62
    41
 48
2.0
370
    13
100
AcDbCircle
 10
1511.392939402194
 20
3847.808286788435
 30
0.0
 40
141.2421786432081
100
AcDbArc
 50
269.4349361967905
 51
271.5794626047092
  0
ARC
  5
1FBB
102
{ACAD_REACTORS
330
1FC3
330
1FC7
102
}
330
1F
100
AcDbEntity
  8
0
  6
ACAD_ISO07W100
 62
    41
 48
2.0
370
    13
100
AcDbCircle
 10
1511.392939402194
 20
3847.808286788435
 30
0.0
 40
141.2421786432081
100
AcDbArc
 50
268.62350034833
 51
269.2320942178714
  0
LINE
  5
1FBC
102
{ACAD_REACTORS
330
1FC3
330
1FC7
102
}
330
1F
100
AcDbEntity
  8
0
  6
ACAD_ISO07W100
 62
    41
 48
2.0
370
    13
100
AcDbLine
 10
1509.499999999983
 20
3706.999999999863
 30
0.0
 11
1509.499999999983
 21
3706.578793380367
 31
0.0
  0
LINE
  5
1FBD
102
{ACAD_REACTORS
330
1FC3
330
1FC7
102
}
330
1F
100
AcDbEntity
  8
0
  6
ACAD_ISO07W100
 62
    41
 48
2.0
370
    13
100
AcDbLine
 10
1509.999999999983
 20
3706.999999999863
 30
0.0
 11
1509.999999999983
 21
3706.572976940997
 31
0.0
  0
LINE
  5
1FBE
102
{ACAD_REACTORS
330
1FC3
330
1FC7
102
}
330
1F
100
AcDbEntity
  8
0
  6
ACAD_ISO07W100
 62
    41
 48
2.0
370
    13
100
AcDbLine
 10
1516.714398756421
 20
3706.488004863404
 30
0.0
 11
1516.009991066644
 21
3707.552248791774
 31
0.0
  0
ARC
  5
1FBF
102
{ACAD_REACTORS
330
1FC3
330
1FC7
102
}
330
1F
100
AcDbEntity
  8
0
  6
ACAD_ISO07W100
 62
    41
 48
2.0
370
    13
100
AcDbCircle
 10
1512.868349979186
 20
3847.827872474285
 30
0.0
 40
141.3921786436514
100
AcDbArc
 50
271.0321023367616
 51
271.559202935718
  0
LINE
  5
1FC0
102
{ACAD_REACTORS
330
1FC3
330
1FC7
102
}
330
1F
100
AcDbEntity
  8
0
  6
ACAD_ISO07W100
 62
    41
 48
2.0
370
    13
100
AcDbLine
 10
1515.282344746155
 20
3706.625645370456
 30
0.0
 11
1515.415192122943
 21
3706.458633328376
 31
0.0
  0
LINE
  5
1FC1
102
{ACAD_REACTORS
330
1FC3
330
1FC7
102
}
330
1F
100
AcDbEntity
  8
0
  6
ACAD_ISO07W100
 62
    41
 48
2.0
370
    13
100
AcDbLine
 10
1509.499999999983
 20
3706.999999999863
 30
0.0
 11
1509.999999999983
 21
3706.999999999863
 31
0.0
  0
LINE
  5
1FC2
102
{ACAD_REACTORS
330
1FC3
330
1FC7
102
}
330
1F
100
AcDbEntity
  8
0
  6
ACAD_ISO07W100
 62
    41
 48
2.0
370
    13
100
AcDbLine
 10
1506.599999999983
 20
3705.399999999863
 30
0.0
 11
1506.599999999983
 21
3718.599999999863
 31
0.0
  0
DIMENSION
  5
1FDA
330
1F
100
AcDbEntity
  8
寸法
370
    13
100
AcDbDimension
  2
*D8
 10
1654.0
 20
3033.999999999998
 30
0.0
 11
1204.0
 21
3068.47443181818
 31
0.0
 70
    32
  1
引戸 GW
 71
     5
 42
900.0
  3
ISO-25 1／10
100
AcDbAlignedDimension
 13
754.0
 23
2912.999999999999
 33
0.0
 14
1654.0
 24
2913.0
 34
0.0
100
AcDbRotatedDimension
1001
ACAD
1000
DSTYLE
1002
{
1070
   279
1070
     1
1002
}
  0
DIMENSION
  5
1FDB
330
1F
100
AcDbEntity
  8
寸法
370
    13
100
AcDbDimension
  2
*D7
 10
2450.0
 20
3108.999999999998
 30
0.0
 11
1600.0
 21
3140.598011363634
 31
0.0
 70
    32
  1
レール
 71
     5
 42
1700.0
  3
ISO-25 1／10
100
AcDbAlignedDimension
 13
750.0
 23
2962.0
 33
0.0
 14
2450.0
 24
2962.0
 34
0.0
100
AcDbRotatedDimension
1001
ACAD
1000
DSTYLE
1002
{
1070
   279
1070
     1
1002
}
  0
DIMENSION
  5
1FDC
330
1F
100
AcDbEntity
  8
寸法
370
    13
100
AcDbDimension
  2
*D9
 10
754.0
 20
3033.999999999998
 30
0.0
 11
791.0
 21
3033.999999999998
 31
0.0
 70
   160
 71
     5
 42
4.0
  3
ISO-25 1／10
100
AcDbAlignedDimension
 13
750.0
 23
2962.0
 33
0.0
 14
754.0
 24
2912.999999999999
 34
0.0
100
AcDbRotatedDimension
1001
ACAD
1000
DSTYLE
1002
{
1070
   279
1070
     1
1002
}
  0
DIMENSION
  5
1FDD
330
1F
100
AcDbEntity
  8
寸法
370
    13
100
AcDbDimension
  2
*D5
 10
675.0
 20
2914.999999999999
 30
0.0
 11
639.886363636363
 21
1814.999999999999
 31
0.0
 70
    32
  1
引戸 GH=（開口Ｈ-57）
 71
     5
 42
2199.999999999999
  3
ISO-25 1／10
100
AcDbAlignedDimension
 13
756.0
 23
715.0
 33
0.0
 14
756.0
 24
2914.999999999999
 34
0.0
 50
90.0
100
AcDbRotatedDimension
1001
ACAD
1000
DSTYLE
1002
{
1070
   279
1070
     1
1002
}
  0
DIMENSION
  5
1FDE
330
1F
100
AcDbEntity
  8
寸法
370
    13
100
AcDbDimension
  2
*D4
 10
600.0
 20
2919.0
 30
0.0
 11
564.1406249999994
 21
1812.0
 31
0.0
 70
    32
  1
有効開口 H=（開口Ｈ-43）
 71
     5
 42
2214.0
  3
ISO-25 1／10
100
AcDbAlignedDimension
 13
750.0
 23
705.0
 33
0.0
 14
750.0
 24
2919.0
 34
0.0
 50
90.0
100
AcDbRotatedDimension
1001
ACAD
1000
DSTYLE
1002
{
1070
   279
1070
     1
1002
}
  0
DIMENSION
  5
1FDF
330
1F
100
AcDbEntity
  8
寸法
370
    13
100
AcDbDimension
  2
*D10
 10
600.0
 20
2919.0
 30
0.0
 11
569.9999999999995
 21
2940.5
 31
0.0
 70
    32
 71
     5
 42
43.0
  3
ISO-25 1／10
100
AcDbAlignedDimension
 13
750.0
 23
2962.0
 33
0.0
 14
750.0
 24
2919.0
 34
0.0
 50
270.0
100
AcDbRotatedDimension
1001
ACAD
1000
DSTYLE
1002
{
1070
   279
1070
     1
1002
}
  0
DIMENSION
  5
1FE0
330
1F
100
AcDbEntity
  8
寸法
370
    13
100
AcDbDimension
  2
*D11
 10
675.0
 20
2914.999999999999
 30
0.0
 11
675.0
 21
2885.0
 31
0.0
 70
   160
 71
     5
 42
4.000000000000909
  3
ISO-25 1／10
100
AcDbAlignedDimension
 13
750.0
 23
2919.0
 33
0.0
 14
756.0
 24
2914.999999999999
 34
0.0
 50
270.0
100
AcDbRotatedDimension
1001
ACAD
1000
DSTYLE
1002
{
1070
   279
1070
     1
1002
}
  0
DIMENSION
  5
1FE1
330
1F
100
AcDbEntity
  8
寸法
370
    13
100
AcDbDimension
  2
*D6
 10
675.0
 20
705.0
 30
0.0
 11
675.0
 21
745.0
 31
0.0
 70
   160
 71
     5
 42
10.0
  3
ISO-25 1／10
100
AcDbAlignedDimension
 13
756.0
 23
715.0
 33
0.0
 14
750.0
 24
705.0
 34
0.0
 50
90.0
100
AcDbRotatedDimension
1001
ACAD
1000
DSTYLE
1002
{
1070
   279
1070
     1
1002
}
  0
DIMENSION
  5
20D3
330
1F
100
AcDbEntity
  8
寸法
370
    13
100
AcDbDimension
  2
*D13
 10
814.0
 20
1816.999999999998
 30
0.0
 11
782.0
 21
1846.999999999998
 31
0.0
 70
    32
 71
     5
 42
64.0
  3
ISO-25 1／10
100
AcDbAlignedDimension
 13
750.0
 23
1713.091923219308
 33
0.0
 14
814.0
 24
1715.0
 34
0.0
100
AcDbRotatedDimension
1001
ACAD
1000
DSTYLE
1002
{
1070
   279
1070
     1
1002
}
  0
DIMENSION
  5
20D4
330
1F
100
AcDbEntity
  8
寸法
370
    13
100
AcDbDimension
  2
*D12
 10
919.0
 20
1715.0
 30
0.0
 11
882.8210227272725
 21
1215.0
 31
0.0
 70
    32
  1
ｶﾞﾗｽ下端～中心=<>
 71
     5
 42
999.9999999999992
  3
ISO-25 1／10
100
AcDbAlignedDimension
 13
844.0
 23
715.0000000000006
 33
0.0
 14
814.0
 24
1715.0
 34
0.0
 50
90.0
100
AcDbRotatedDimension
1001
ACAD
1000
DSTYLE
1002
{
1070
   279
1070
     1
1002
}
  0
DIMENSION
  5
2141
330
1F
100
AcDbEntity
  8
寸法
370
    13
100
AcDbDimension
  2
*D14
 10
525.0
 20
2962.0
 30
0.0
 11
489.9928977272721
 21
1833.5
 31
0.0
 70
    32
  1
開口 H
 71
     5
 42
2257.0
  3
ISO-25 1／10
100
AcDbAlignedDimension
 13
750.0
 23
705.0
 33
0.0
 14
750.0
 24
2962.0
 34
0.0
 50
90.0
100
AcDbRotatedDimension
1001
ACAD
1000
DSTYLE
1002
{
1070
   279
1070
     1
1002
}
  0
LWPOLYLINE
  5
2237
330
1F
100
AcDbEntity
  8
0
370
    13
100
AcDbPolyline
 90
        4
 70
     1
 43
0.0
 10
1414.0
 20
554.9999999999995
 10
1654.0
 20
554.9999999999995
 10
1654.0
 20
630.0
 10
1414.0
 20
630.0
  0
LWPOLYLINE
  5
2238
330
1F
100
AcDbEntity
  8
0
370
    13
100
AcDbPolyline
 90
        4
 70
     1
 43
0.0
 10
3001.707984576882
 20
1006.49999999999
 10
3241.707984576882
 20
1006.49999999999
 10
3241.707984576882
 20
1081.499999999991
 10
3001.707984576882
 20
1081.499999999991
  0
LWPOLYLINE
  5
223A
330
1F
100
AcDbEntity
  8
0
370
    13
100
AcDbPolyline
 90
        4
 70
     1
 43
0.0
 10
2476.707984576882
 20
1006.500000000006
 10
2716.707984576882
 20
1006.500000000006
 10
2716.707984576882
 20
1081.500000000007
 10
2476.707984576882
 20
1081.500000000007
  0
LWPOLYLINE
  5
223D
330
1F
100
AcDbEntity
  8
0
370
    13
100
AcDbPolyline
 90
        4
 70
     1
 43
0.0
 10
2854.0
 20
3465.499999999735
 10
3104.0
 20
3465.499999999735
 10
3104.0
 20
3540.499999999735
 10
2854.0
 20
3540.499999999735
  0
LWPOLYLINE
  5
223E
330
1F
100
AcDbEntity
  8
0
370
    13
100
AcDbPolyline
 90
        4
 70
     1
 43
0.0
 10
2854.0
 20
4015.499999999734
 10
3104.0
 20
4015.499999999734
 10
3104.0
 20
3940.499999999734
 10
2854.0
 20
3940.499999999734
  0
DIMENSION
  5
2243
330
1F
100
AcDbEntity
  8
寸法
370
    13
100
AcDbDimension
  2
*D15
 10
2872.500209227874
 20
3033.999999999998
 30
0.0
 11
2854.000209227873
 21
3063.999999999998
 31
0.0
 70
    32
 71
     5
 42
37.0
  3
ISO-25 1／10
100
AcDbAlignedDimension
 13
2835.500209227873
 23
2961.661794960505
 33
0.0
 14
2872.500209227874
 24
2961.699297187281
 34
0.0
100
AcDbRotatedDimension
1001
ACAD
1000
DSTYLE
1002
{
1070
   279
1070
     1
1002
}
  0
DIMENSION
  5
225C
330
1F
100
AcDbEntity
  8
寸法
370
    13
100
AcDbDimension
  2
*D16
 10
675.0
 20
3702.000000000001
 30
0.0
 11
644.9999999999995
 21
3723.500000000001
 31
0.0
 70
    32
 71
     5
 42
43.0
  3
ISO-25 1／10
100
AcDbAlignedDimension
 13
750.0
 23
3745.000000000001
 33
0.0
 14
750.0
 24
3702.000000000001
 34
0.0
 50
270.0
100
AcDbRotatedDimension
1001
ACAD
1000
DSTYLE
1002
{
1070
   279
1070
     1
1002
}
  0
LINE
  5
2323
102
{ACAD_REACTORS
330
23A3
102
}
330
1F
100
AcDbEntity
  8
0
 62
     1
370
    13
100
AcDbLine
 10
2856.500300360666
 20
2972.22251960801
 30
0.0
 11
2855.552145452323
 21
2972.911449029355
 31
0.0
  0
LINE
  5
2324
102
{ACAD_REACTORS
330
23A3
102
}
330
1F
100
AcDbEntity
  8
0
 62
     1
370
    13
100
AcDbLine
 10
2855.550300360666
 20
2962.076686260328
 30
0.0
 11
2855.550300360666
 21
2963.112087449644
 31
0.0
  0
LINE
  5
2325
102
{ACAD_REACTORS
330
23A3
102
}
330
1F
100
AcDbEntity
  8
0
 62
     1
370
    13
100
AcDbLine
 10
2852.450300360663
 20
2963.074555150634
 30
0.0
 11
2852.450300360663
 21
2962.076686260328
 31
0.0
  0
LINE
  5
2326
102
{ACAD_REACTORS
330
23A3
102
}
330
1F
100
AcDbEntity
  8
0
 62
     1
370
    13
100
AcDbLine
 10
2851.500300360666
 20
2961.57550824822
 30
0.0
 11
2852.220536475031
 21
2961.848767466355
 31
0.0
  0
LINE
  5
2327
102
{ACAD_REACTORS
330
23A3
102
}
330
1F
100
AcDbEntity
  8
0
 62
     1
370
    13
100
AcDbLine
 10
2852.821267706285
 20
2962.076686260328
 30
0.0
 11
2856.500300360666
 21
2963.472519608004
 31
0.0
  0
LINE
  5
2328
102
{ACAD_REACTORS
330
23A3
102
}
330
1F
100
AcDbEntity
  8
0
 62
     1
370
    13
100
AcDbLine
 10
2856.500300360666
 20
2967.847519608007
 30
0.0
 11
2855.552145452323
 21
2968.536449029351
 31
0.0
  0
LINE
  5
2329
102
{ACAD_REACTORS
330
23A3
102
}
330
1F
100
AcDbEntity
  8
0
 62
     1
370
    13
100
AcDbLine
 10
2855.550300360666
 20
2968.535271467611
 30
0.0
 11
2855.550300360666
 21
2969.428552636525
 31
0.0
  0
LINE
  5
232A
102
{ACAD_REACTORS
330
23A3
102
}
330
1F
100
AcDbEntity
  8
0
 62
     1
370
    13
100
AcDbLine
 10
2855.552145452323
 20
2968.536449029351
 30
0.0
 11
2851.500300360666
 21
2965.950508248223
 31
0.0
  0
LINE
  5
232B
102
{ACAD_REACTORS
330
23A3
102
}
330
1F
100
AcDbEntity
  8
0
 62
     1
370
    13
100
AcDbLine
 10
2856.500300360666
 20
2965.660019608006
 30
0.0
 11
2855.552145452323
 21
2966.34894902935
 31
0.0
  0
LINE
  5
232C
102
{ACAD_REACTORS
330
23A3
102
}
330
1F
100
AcDbEntity
  8
0
 62
     1
370
    13
100
AcDbLine
 10
2856.500300360666
 20
2963.472519608004
 30
0.0
 11
2855.552145452323
 21
2964.161449029348
 31
0.0
  0
LINE
  5
232D
102
{ACAD_REACTORS
330
23A3
102
}
330
1F
100
AcDbEntity
  8
0
 62
     1
370
    13
100
AcDbLine
 10
2851.500300360666
 20
2965.950508248223
 30
0.0
 11
2856.500300360666
 21
2967.847519608007
 31
0.0
  0
LINE
  5
232E
102
{ACAD_REACTORS
330
23A3
102
}
330
1F
100
AcDbEntity
  8
0
 62
     1
370
    13
100
AcDbLine
 10
2852.450300360663
 20
2965.262055150636
 30
0.0
 11
2856.500300360666
 21
2967.847519608007
 31
0.0
  0
LINE
  5
232F
102
{ACAD_REACTORS
330
23A3
102
}
330
1F
100
AcDbEntity
  8
0
 62
     1
370
    13
100
AcDbLine
 10
2851.500300360666
 20
2963.763008248223
 30
0.0
 11
2856.500300360666
 21
2965.660019608006
 31
0.0
  0
LINE
  5
2330
102
{ACAD_REACTORS
330
23A3
102
}
330
1F
100
AcDbEntity
  8
0
 62
     1
370
    13
100
AcDbLine
 10
2852.450300360663
 20
2963.074555150634
 30
0.0
 11
2856.500300360666
 21
2965.660019608006
 31
0.0
  0
LINE
  5
2331
102
{ACAD_REACTORS
330
23A3
102
}
330
1F
100
AcDbEntity
  8
0
 62
     1
370
    13
100
AcDbLine
 10
2855.550300360666
 20
2966.347771467608
 30
0.0
 11
2855.550300360666
 21
2967.241052636525
 31
0.0
  0
LINE
  5
2332
102
{ACAD_REACTORS
330
23A3
102
}
330
1F
100
AcDbEntity
  8
0
 62
     1
370
    13
100
AcDbLine
 10
2855.550300360666
 20
2964.160271467608
 30
0.0
 11
2855.550300360666
 21
2965.053552636523
 31
0.0
  0
LINE
  5
2333
102
{ACAD_REACTORS
330
23A3
102
}
330
1F
100
AcDbEntity
  8
0
 62
     1
370
    13
100
AcDbLine
 10
2851.500300360666
 20
2965.950508248223
 30
0.0
 11
2852.450300360663
 21
2965.262055150636
 31
0.0
  0
LINE
  5
2334
102
{ACAD_REACTORS
330
23A3
102
}
330
1F
100
AcDbEntity
  8
0
 62
     1
370
    13
100
AcDbLine
 10
2852.450300360663
 20
2967.449555150637
 30
0.0
 11
2852.450300360663
 21
2966.556810731784
 31
0.0
  0
LINE
  5
2335
102
{ACAD_REACTORS
330
23A3
102
}
330
1F
100
AcDbEntity
  8
0
 62
     1
370
    13
100
AcDbLine
 10
2851.500300360666
 20
2963.763008248223
 30
0.0
 11
2852.450300360663
 21
2963.074555150634
 31
0.0
  0
LINE
  5
2336
102
{ACAD_REACTORS
330
23A3
102
}
330
1F
100
AcDbEntity
  8
0
 62
     1
370
    13
100
AcDbLine
 10
2852.450300360663
 20
2965.262055150636
 30
0.0
 11
2852.450300360663
 21
2964.369310731782
 31
0.0
  0
LINE
  5
2337
102
{ACAD_REACTORS
330
23A3
102
}
330
1F
100
AcDbEntity
  8
0
 62
     1
370
    13
100
AcDbLine
 10
2855.552145452323
 20
2966.34894902935
 30
0.0
 11
2851.500300360666
 21
2963.763008248223
 31
0.0
  0
LINE
  5
2338
102
{ACAD_REACTORS
330
23A3
102
}
330
1F
100
AcDbEntity
  8
0
 62
     1
370
    13
100
AcDbLine
 10
2855.552145452323
 20
2964.161449029348
 30
0.0
 11
2851.500300360666
 21
2961.57550824822
 31
0.0
  0
LINE
  5
2339
102
{ACAD_REACTORS
330
23A3
102
}
330
1F
100
AcDbEntity
  8
0
 62
     1
370
    13
100
AcDbLine
 10
2856.500300360666
 20
2974.410019608011
 30
0.0
 11
2855.552145452323
 21
2975.098949029355
 31
0.0
  0
LINE
  5
233A
102
{ACAD_REACTORS
330
23A3
102
}
330
1F
100
AcDbEntity
  8
0
 62
     1
370
    13
100
AcDbLine
 10
2855.550300360666
 20
2975.097771467615
 30
0.0
 11
2855.550300360666
 21
2975.99105263653
 31
0.0
  0
LINE
  5
233B
102
{ACAD_REACTORS
330
23A3
102
}
330
1F
100
AcDbEntity
  8
0
 62
     1
370
    13
100
AcDbLine
 10
2855.552145452323
 20
2975.098949029355
 30
0.0
 11
2851.500300360666
 21
2972.513008248228
 31
0.0
  0
LINE
  5
233C
102
{ACAD_REACTORS
330
23A3
102
}
330
1F
100
AcDbEntity
  8
0
 62
     1
370
    13
100
AcDbLine
 10
2856.500300360666
 20
2970.035019608008
 30
0.0
 11
2855.552145452323
 21
2970.723949029352
 31
0.0
  0
LINE
  5
233D
102
{ACAD_REACTORS
330
23A3
102
}
330
1F
100
AcDbEntity
  8
0
 62
     1
370
    13
100
AcDbLine
 10
2851.500300360666
 20
2972.513008248228
 30
0.0
 11
2856.500300360666
 21
2974.410019608011
 31
0.0
  0
LINE
  5
233E
102
{ACAD_REACTORS
330
23A3
102
}
330
1F
100
AcDbEntity
  8
0
 62
     1
370
    13
100
AcDbLine
 10
2852.450300360663
 20
2971.82455515064
 30
0.0
 11
2856.500300360666
 21
2974.410019608011
 31
0.0
  0
LINE
  5
233F
102
{ACAD_REACTORS
330
23A3
102
}
330
1F
100
AcDbEntity
  8
0
 62
     1
370
    13
100
AcDbLine
 10
2851.500300360666
 20
2970.325508248227
 30
0.0
 11
2856.500300360666
 21
2972.22251960801
 31
0.0
  0
LINE
  5
2340
102
{ACAD_REACTORS
330
23A3
102
}
330
1F
100
AcDbEntity
  8
0
 62
     1
370
    13
100
AcDbLine
 10
2852.450300360663
 20
2969.637055150638
 30
0.0
 11
2856.500300360666
 21
2972.22251960801
 31
0.0
  0
LINE
  5
2341
102
{ACAD_REACTORS
330
23A3
102
}
330
1F
100
AcDbEntity
  8
0
 62
     1
370
    13
100
AcDbLine
 10
2851.500300360666
 20
2968.138008248225
 30
0.0
 11
2856.500300360666
 21
2970.035019608008
 31
0.0
  0
LINE
  5
2342
102
{ACAD_REACTORS
330
23A3
102
}
330
1F
100
AcDbEntity
  8
0
 62
     1
370
    13
100
AcDbLine
 10
2852.450300360663
 20
2967.449555150638
 30
0.0
 11
2856.500300360666
 21
2970.035019608008
 31
0.0
  0
LINE
  5
2343
102
{ACAD_REACTORS
330
23A3
102
}
330
1F
100
AcDbEntity
  8
0
 62
     1
370
    13
100
AcDbLine
 10
2855.550300360666
 20
2972.910271467613
 30
0.0
 11
2855.550300360666
 21
2973.80355263653
 31
0.0
  0
LINE
  5
2344
102
{ACAD_REACTORS
330
23A3
102
}
330
1F
100
AcDbEntity
  8
0
 62
     1
370
    13
100
AcDbLine
 10
2855.550300360666
 20
2970.722771467613
 30
0.0
 11
2855.550300360666
 21
2971.616052636528
 31
0.0
  0
LINE
  5
2345
102
{ACAD_REACTORS
330
23A3
102
}
330
1F
100
AcDbEntity
  8
0
 62
     1
370
    13
100
AcDbLine
 10
2851.500300360666
 20
2972.513008248228
 30
0.0
 11
2852.450300360663
 21
2971.82455515064
 31
0.0
  0
LINE
  5
2346
102
{ACAD_REACTORS
330
23A3
102
}
330
1F
100
AcDbEntity
  8
0
 62
     1
370
    13
100
AcDbLine
 10
2852.450300360663
 20
2974.012055150641
 30
0.0
 11
2852.450300360663
 21
2973.119310731788
 31
0.0
  0
LINE
  5
2347
102
{ACAD_REACTORS
330
23A3
102
}
330
1F
100
AcDbEntity
  8
0
 62
     1
370
    13
100
AcDbLine
 10
2851.500300360666
 20
2970.325508248227
 30
0.0
 11
2852.450300360663
 21
2969.637055150638
 31
0.0
  0
LINE
  5
2348
102
{ACAD_REACTORS
330
23A3
102
}
330
1F
100
AcDbEntity
  8
0
 62
     1
370
    13
100
AcDbLine
 10
2852.450300360663
 20
2971.82455515064
 30
0.0
 11
2852.450300360663
 21
2970.931810731786
 31
0.0
  0
LINE
  5
2349
102
{ACAD_REACTORS
330
23A3
102
}
330
1F
100
AcDbEntity
  8
0
 62
     1
370
    13
100
AcDbLine
 10
2855.552145452323
 20
2972.911449029355
 30
0.0
 11
2851.500300360666
 21
2970.325508248227
 31
0.0
  0
LINE
  5
234A
102
{ACAD_REACTORS
330
23A3
102
}
330
1F
100
AcDbEntity
  8
0
 62
     1
370
    13
100
AcDbLine
 10
2851.500300360666
 20
2968.138008248225
 30
0.0
 11
2852.450300360663
 21
2967.449555150638
 31
0.0
  0
LINE
  5
234B
102
{ACAD_REACTORS
330
23A3
102
}
330
1F
100
AcDbEntity
  8
0
 62
     1
370
    13
100
AcDbLine
 10
2855.552145452323
 20
2970.723949029352
 30
0.0
 11
2851.500300360666
 21
2968.138008248225
 31
0.0
  0
LINE
  5
234C
102
{ACAD_REACTORS
330
23A3
102
}
330
1F
100
AcDbEntity
  8
0
 62
     1
370
    13
100
AcDbLine
 10
2852.450300360663
 20
2969.637055150638
 30
0.0
 11
2852.450300360663
 21
2968.744310731786
 31
0.0
  0
LINE
  5
234D
102
{ACAD_REACTORS
330
23A3
102
}
330
1F
100
AcDbEntity
  8
0
 62
     1
370
    13
100
AcDbLine
 10
2852.448455269002
 20
2962.076686260328
 30
0.0
 11
2855.552145452318
 21
2962.076686260328
 31
0.0
  0
LINE
  5
234E
102
{ACAD_REACTORS
330
23A3
102
}
330
1F
100
AcDbEntity
  8
0
 62
     1
370
    13
100
AcDbLine
 10
2852.448455269002
 20
2962.076686260328
 30
0.0
 11
2849.000300360661
 21
2958.628531351986
 31
0.0
  0
LINE
  5
234F
102
{ACAD_REACTORS
330
23A3
102
}
330
1F
100
AcDbEntity
  8
0
 62
     1
370
    13
100
AcDbLine
 10
2849.000300360661
 20
2958.628531351986
 30
0.0
 11
2849.000300360661
 21
2958.46186468532
 31
0.0
  0
LINE
  5
2350
102
{ACAD_REACTORS
330
23A3
102
}
330
1F
100
AcDbEntity
  8
0
 62
     1
370
    13
100
AcDbLine
 10
2859.000300360661
 20
2958.46186468532
 30
0.0
 11
2859.000300360661
 21
2958.628531351986
 31
0.0
  0
LINE
  5
2351
102
{ACAD_REACTORS
330
23A3
102
}
330
1F
100
AcDbEntity
  8
0
 62
     1
370
    13
100
AcDbLine
 10
2855.552145452318
 20
2962.076686260328
 30
0.0
 11
2859.000300360661
 21
2958.628531351986
 31
0.0
  0
LINE
  5
2352
102
{ACAD_REACTORS
330
23A3
102
}
330
1F
100
AcDbEntity
  8
0
 62
     1
370
    13
100
AcDbLine
 10
2849.000300360661
 20
2958.46186468532
 30
0.0
 11
2859.000300360661
 21
2958.46186468532
 31
0.0
  0
LINE
  5
2353
102
{ACAD_REACTORS
330
23A3
102
}
330
1F
100
AcDbEntity
  8
0
 62
     1
370
    13
100
AcDbLine
 10
2849.000300360661
 20
2958.628531351986
 30
0.0
 11
2859.000300360661
 21
2958.628531351986
 31
0.0
  0
LINE
  5
2354
102
{ACAD_REACTORS
330
23A3
102
}
330
1F
100
AcDbEntity
  8
0
 62
     1
370
    13
100
AcDbLine
 10
2855.552145452323
 20
2986.036449029361
 30
0.0
 11
2851.500300360666
 21
2983.450508248234
 31
0.0
  0
ARC
  5
2355
102
{ACAD_REACTORS
330
23A3
102
}
330
1F
100
AcDbEntity
  8
0
 62
     1
370
    13
100
AcDbCircle
 10
2833.791723855132
 20
2990.390149384221
 30
0.0
 40
21.76095476494696
100
AcDbArc
 50
17.90934773181493
 51
21.77276974014304
  0
ARC
  5
2356
102
{ACAD_REACTORS
330
23A3
102
}
330
1F
100
AcDbEntity
  8
0
 62
     1
370
    13
100
AcDbCircle
 10
2874.208876866197
 20
2990.390149384221
 30
0.0
 40
21.76095476494696
100
AcDbArc
 50
158.2272302598569
 51
163.3231091220952
  0
LINE
  5
2357
102
{ACAD_REACTORS
330
23A3
102
}
330
1F
100
AcDbEntity
  8
0
 62
     1
370
    13
100
AcDbLine
 10
2854.494765071336
 20
2996.910019593665
 30
0.0
 11
2854.839931339463
 21
2997.081901170275
 31
0.0
  0
LINE
  5
2358
102
{ACAD_REACTORS
330
23A3
102
}
330
1F
100
AcDbEntity
  8
0
 62
     1
370
    13
100
AcDbLine
 10
2854.839931339463
 20
2997.081901170275
 30
0.0
 11
2854.494765071336
 21
2997.081901170275
 31
0.0
  0
LINE
  5
2359
102
{ACAD_REACTORS
330
23A3
102
}
330
1F
100
AcDbEntity
  8
0
 62
     1
370
    13
100
AcDbLine
 10
2854.494765071336
 20
2997.081901170275
 30
0.0
 11
2853.185669381868
 21
2996.56485332554
 31
0.0
  0
LINE
  5
235A
102
{ACAD_REACTORS
330
23A3
102
}
330
1F
100
AcDbEntity
  8
0
 62
     1
370
    13
100
AcDbLine
 10
2853.185669381868
 20
2996.56485332554
 30
0.0
 11
2854.839931339463
 21
2997.081901170275
 31
0.0
  0
LINE
  5
235B
102
{ACAD_REACTORS
330
23A3
102
}
330
1F
100
AcDbEntity
  8
0
 62
     1
370
    13
100
AcDbLine
 10
2854.494765071336
 20
2996.910019593665
 30
0.0
 11
2853.185669381868
 21
2996.56485332554
 31
0.0
  0
ARC
  5
235C
102
{ACAD_REACTORS
330
23A3
102
}
330
1F
100
AcDbEntity
  8
0
 62
     1
370
    13
100
AcDbCircle
 10
2833.791723855132
 20
2990.390149384221
 30
0.0
 40
21.76095476494696
100
AcDbArc
 50
12.93761608873987
 51
17.5035716443023
  0
LINE
  5
235D
102
{ACAD_REACTORS
330
23A3
102
}
330
1F
100
AcDbEntity
  8
0
 62
     1
370
    13
100
AcDbLine
 10
2855.284396050135
 20
2993.80632941035
 30
0.0
 11
2852.150872134943
 21
2992.081901184629
 31
0.0
  0
LINE
  5
235E
102
{ACAD_REACTORS
330
23A3
102
}
330
1F
100
AcDbEntity
  8
0
 62
     1
370
    13
100
AcDbLine
 10
2852.150872134943
 20
2992.081901184629
 30
0.0
 11
2855.802145452324
 21
2993.461163142224
 31
0.0
  0
LINE
  5
235F
102
{ACAD_REACTORS
330
23A3
102
}
330
1F
100
AcDbEntity
  8
0
 62
     1
370
    13
100
AcDbLine
 10
2852.150872134943
 20
2992.081901184629
 30
0.0
 11
2855.456979184198
 21
2993.289281565615
 31
0.0
  0
LINE
  5
2360
102
{ACAD_REACTORS
330
23A3
102
}
330
1F
100
AcDbEntity
  8
0
 62
     1
370
    13
100
AcDbLine
 10
2855.552145452323
 20
2990.411449029364
 30
0.0
 11
2851.500300360666
 21
2987.825508248236
 31
0.0
  0
ARC
  5
2361
102
{ACAD_REACTORS
330
23A3
102
}
330
1F
100
AcDbEntity
  8
0
 62
     1
370
    13
100
AcDbCircle
 10
2874.208876866197
 20
2990.390149384221
 30
0.0
 40
21.76095476494696
100
AcDbArc
 50
175.1803857141311
 51
179.1529047921186
  0
ARC
  5
2362
102
{ACAD_REACTORS
330
23A3
102
}
330
1F
100
AcDbEntity
  8
0
 62
     1
370
    13
100
AcDbCircle
 10
2874.208876866197
 20
2990.390149384221
 30
0.0
 40
21.76095476494696
100
AcDbArc
 50
170.0463707642133
 51
174.9883343122557
  0
LINE
  5
2363
102
{ACAD_REACTORS
330
23A3
102
}
330
1F
100
AcDbEntity
  8
0
 62
     1
370
    13
100
AcDbLine
 10
2852.450300360665
 20
2990.711864685327
 30
0.0
 11
2852.450300360665
 21
2990.530643369232
 31
0.0
  0
LINE
  5
2364
102
{ACAD_REACTORS
330
23A3
102
}
330
1F
100
AcDbEntity
  8
0
 62
     1
370
    13
100
AcDbLine
 10
2852.448455269009
 20
2990.530056092971
 30
0.0
 11
2851.758824290211
 21
2990.013008248237
 31
0.0
  0
LINE
  5
2365
102
{ACAD_REACTORS
330
23A3
102
}
330
1F
100
AcDbEntity
  8
0
 62
     1
370
    13
100
AcDbLine
 10
2851.758824290211
 20
2990.013008248237
 30
0.0
 11
2852.448455269009
 21
2989.495960403501
 31
0.0
  0
LINE
  5
2366
102
{ACAD_REACTORS
330
23A3
102
}
330
1F
100
AcDbEntity
  8
0
 62
     1
370
    13
100
AcDbLine
 10
2852.875585992942
 20
2994.683149826692
 30
0.0
 11
2852.430419979678
 21
2994.323377255085
 31
0.0
  0
LINE
  5
2367
102
{ACAD_REACTORS
330
23A3
102
}
330
1F
100
AcDbEntity
  8
0
 62
     1
370
    13
100
AcDbLine
 10
2852.430419979678
 20
2994.323377255085
 30
0.0
 11
2852.775586247805
 21
2994.151495678475
 31
0.0
  0
LINE
  5
2368
102
{ACAD_REACTORS
330
23A3
102
}
330
1F
100
AcDbEntity
  8
0
 62
     1
370
    13
100
AcDbLine
 10
2852.450300360663
 20
2989.497050669425
 30
0.0
 11
2852.450300360663
 21
2988.431810731795
 31
0.0
  0
LINE
  5
2369
102
{ACAD_REACTORS
330
23A3
102
}
330
1F
100
AcDbEntity
  8
0
 62
     1
370
    13
100
AcDbLine
 10
2855.550300360666
 20
2990.410271467622
 30
0.0
 11
2855.550300360666
 21
2990.711864685327
 31
0.0
  0
ARC
  5
236A
102
{ACAD_REACTORS
330
23A3
102
}
330
1F
100
AcDbEntity
  8
0
 62
     1
370
    13
100
AcDbCircle
 10
2833.791723855132
 20
2990.390149384221
 30
0.0
 40
21.76095476494696
100
AcDbArc
 50
2.947039956340269
 51
7.565159447519907
  0
ARC
  5
236B
102
{ACAD_REACTORS
330
23A3
102
}
330
1F
100
AcDbEntity
  8
0
 62
     1
370
    13
100
AcDbCircle
 10
2833.791723855132
 20
2990.390149384221
 30
0.0
 40
21.76095476494696
100
AcDbArc
 50
0.8470952078813748
 51
2.445161331952095
  0
LINE
  5
236C
102
{ACAD_REACTORS
330
23A3
102
}
330
1F
100
AcDbEntity
  8
0
 62
     1
370
    13
100
AcDbLine
 10
2855.456979184198
 20
2993.289281565615
 30
0.0
 11
2855.802145452324
 21
2993.461163142224
 31
0.0
  0
LINE
  5
236D
102
{ACAD_REACTORS
330
23A3
102
}
330
1F
100
AcDbEntity
  8
0
 62
     1
370
    13
100
AcDbLine
 10
2855.802145452324
 20
2993.461163142224
 30
0.0
 11
2855.284396050135
 21
2993.80632941035
 31
0.0
  0
LINE
  5
236E
102
{ACAD_REACTORS
330
23A3
102
}
330
1F
100
AcDbEntity
  8
0
 62
     1
370
    13
100
AcDbLine
 10
2855.550300360666
 20
2988.222771467622
 30
0.0
 11
2855.550300360666
 21
2989.116052636539
 31
0.0
  0
LINE
  5
236F
102
{ACAD_REACTORS
330
23A3
102
}
330
1F
100
AcDbEntity
  8
0
 62
     1
370
    13
100
AcDbLine
 10
2852.448455269009
 20
2989.495960403501
 30
0.0
 11
2856.24177643112
 21
2991.737436473957
 31
0.0
  0
LINE
  5
2370
102
{ACAD_REACTORS
330
23A3
102
}
330
1F
100
AcDbEntity
  8
0
 62
     1
370
    13
100
AcDbLine
 10
2852.448455269009
 20
2990.530056092971
 30
0.0
 11
2856.24177643112
 21
2991.737436473957
 31
0.0
  0
LINE
  5
2371
102
{ACAD_REACTORS
330
23A3
102
}
330
1F
100
AcDbEntity
  8
0
 62
     1
370
    13
100
AcDbLine
 10
2851.758824290211
 20
2990.013008248237
 30
0.0
 11
2856.24177643112
 21
2991.737436473957
 31
0.0
  0
LINE
  5
2372
102
{ACAD_REACTORS
330
23A3
102
}
330
1F
100
AcDbEntity
  8
0
 62
     1
370
    13
100
AcDbLine
 10
2851.500300360666
 20
2987.825508248236
 30
0.0
 11
2856.500300360666
 21
2989.72251960802
 31
0.0
  0
LINE
  5
2373
102
{ACAD_REACTORS
330
23A3
102
}
330
1F
100
AcDbEntity
  8
0
 62
     1
370
    13
100
AcDbLine
 10
2856.500300360666
 20
2989.72251960802
 30
0.0
 11
2855.552145452323
 21
2990.411449029364
 31
0.0
  0
LINE
  5
2374
102
{ACAD_REACTORS
330
23A3
102
}
330
1F
100
AcDbEntity
  8
0
 62
     1
370
    13
100
AcDbLine
 10
2852.775586247805
 20
2994.151495678475
 30
0.0
 11
2855.331979184198
 21
2995.358174502007
 31
0.0
  0
LINE
  5
2375
102
{ACAD_REACTORS
330
23A3
102
}
330
1F
100
AcDbEntity
  8
0
 62
     1
370
    13
100
AcDbLine
 10
2852.875585992942
 20
2994.683149826692
 30
0.0
 11
2855.331979184198
 21
2995.358174502007
 31
0.0
  0
LINE
  5
2376
102
{ACAD_REACTORS
330
23A3
102
}
330
1F
100
AcDbEntity
  8
0
 62
     1
370
    13
100
AcDbLine
 10
2852.430419979678
 20
2994.323377255085
 30
0.0
 11
2855.331979184198
 21
2995.358174502007
 31
0.0
  0
ARC
  5
2377
102
{ACAD_REACTORS
330
23A3
102
}
330
1F
100
AcDbEntity
  8
0
 62
     1
370
    13
100
AcDbCircle
 10
2833.791723855132
 20
2990.390149384221
 30
0.0
 40
21.76095476494696
100
AcDbArc
 50
9.029960916246272
 51
12.78984449625608
  0
ARC
  5
2378
102
{ACAD_REACTORS
330
23A3
102
}
330
1F
100
AcDbEntity
  8
0
 62
     1
370
    13
100
AcDbCircle
 10
2874.208876866144
 20
2990.390149384232
 30
0.0
 40
21.76095476489352
100
AcDbArc
 50
163.3926550847482
 51
168.6220561941481
  0
LINE
  5
2379
102
{ACAD_REACTORS
330
23A3
102
}
330
1F
100
AcDbEntity
  8
0
 62
     1
370
    13
100
AcDbLine
 10
2852.450300360663
 20
2982.762055150647
 30
0.0
 11
2852.450300360663
 21
2981.869310731793
 31
0.0
  0
LINE
  5
237A
102
{ACAD_REACTORS
330
23A3
102
}
330
1F
100
AcDbEntity
  8
0
 62
     1
370
    13
100
AcDbLine
 10
2855.552145452323
 20
2983.848949029361
 30
0.0
 11
2851.500300360666
 21
2981.263008248234
 31
0.0
  0
LINE
  5
237B
102
{ACAD_REACTORS
330
23A3
102
}
330
1F
100
AcDbEntity
  8
0
 62
     1
370
    13
100
AcDbLine
 10
2852.450300360663
 20
2987.137055150649
 30
0.0
 11
2852.450300360663
 21
2986.244310731795
 31
0.0
  0
LINE
  5
237C
102
{ACAD_REACTORS
330
23A3
102
}
330
1F
100
AcDbEntity
  8
0
 62
     1
370
    13
100
AcDbLine
 10
2851.500300360666
 20
2985.638008248236
 30
0.0
 11
2852.450300360663
 21
2984.949555150647
 31
0.0
  0
LINE
  5
237D
102
{ACAD_REACTORS
330
23A3
102
}
330
1F
100
AcDbEntity
  8
0
 62
     1
370
    13
100
AcDbLine
 10
2852.450300360663
 20
2984.949555150647
 30
0.0
 11
2852.450300360663
 21
2984.056810731795
 31
0.0
  0
LINE
  5
237E
102
{ACAD_REACTORS
330
23A3
102
}
330
1F
100
AcDbEntity
  8
0
 62
     1
370
    13
100
AcDbLine
 10
2855.550300360666
 20
2986.035271467622
 30
0.0
 11
2855.550300360666
 21
2986.928552636537
 31
0.0
  0
LINE
  5
237F
102
{ACAD_REACTORS
330
23A3
102
}
330
1F
100
AcDbEntity
  8
0
 62
     1
370
    13
100
AcDbLine
 10
2855.550300360666
 20
2983.847771467621
 30
0.0
 11
2855.550300360666
 21
2984.741052636536
 31
0.0
  0
LINE
  5
2380
102
{ACAD_REACTORS
330
23A3
102
}
330
1F
100
AcDbEntity
  8
0
 62
     1
370
    13
100
AcDbLine
 10
2851.500300360666
 20
2983.450508248234
 30
0.0
 11
2852.450300360663
 21
2982.762055150647
 31
0.0
  0
LINE
  5
2381
102
{ACAD_REACTORS
330
23A3
102
}
330
1F
100
AcDbEntity
  8
0
 62
     1
370
    13
100
AcDbLine
 10
2855.550300360666
 20
2981.66027146762
 30
0.0
 11
2855.550300360666
 21
2982.553552636534
 31
0.0
  0
LINE
  5
2382
102
{ACAD_REACTORS
330
23A3
102
}
330
1F
100
AcDbEntity
  8
0
 62
     1
370
    13
100
AcDbLine
 10
2851.500300360666
 20
2983.450508248234
 30
0.0
 11
2856.500300360666
 21
2985.347519608017
 31
0.0
  0
LINE
  5
2383
102
{ACAD_REACTORS
330
23A3
102
}
330
1F
100
AcDbEntity
  8
0
 62
     1
370
    13
100
AcDbLine
 10
2852.450300360663
 20
2982.762055150647
 30
0.0
 11
2856.500300360666
 21
2985.347519608017
 31
0.0
  0
LINE
  5
2384
102
{ACAD_REACTORS
330
23A3
102
}
330
1F
100
AcDbEntity
  8
0
 62
     1
370
    13
100
AcDbLine
 10
2856.500300360666
 20
2983.160019608018
 30
0.0
 11
2855.552145452323
 21
2983.848949029361
 31
0.0
  0
LINE
  5
2385
102
{ACAD_REACTORS
330
23A3
102
}
330
1F
100
AcDbEntity
  8
0
 62
     1
370
    13
100
AcDbLine
 10
2852.450300360663
 20
2984.949555150647
 30
0.0
 11
2856.500300360666
 21
2987.535019608019
 31
0.0
  0
LINE
  5
2386
102
{ACAD_REACTORS
330
23A3
102
}
330
1F
100
AcDbEntity
  8
0
 62
     1
370
    13
100
AcDbLine
 10
2851.500300360666
 20
2985.638008248236
 30
0.0
 11
2856.500300360666
 21
2987.535019608019
 31
0.0
  0
LINE
  5
2387
102
{ACAD_REACTORS
330
23A3
102
}
330
1F
100
AcDbEntity
  8
0
 62
     1
370
    13
100
AcDbLine
 10
2856.500300360666
 20
2985.347519608017
 30
0.0
 11
2855.552145452323
 21
2986.036449029361
 31
0.0
  0
LINE
  5
2388
102
{ACAD_REACTORS
330
23A3
102
}
330
1F
100
AcDbEntity
  8
0
 62
     1
370
    13
100
AcDbLine
 10
2851.500300360666
 20
2981.263008248234
 30
0.0
 11
2856.500300360666
 21
2983.160019608018
 31
0.0
  0
LINE
  5
2389
102
{ACAD_REACTORS
330
23A3
102
}
330
1F
100
AcDbEntity
  8
0
 62
     1
370
    13
100
AcDbLine
 10
2855.552145452323
 20
2988.223949029364
 30
0.0
 11
2851.500300360666
 21
2985.638008248236
 31
0.0
  0
LINE
  5
238A
102
{ACAD_REACTORS
330
23A3
102
}
330
1F
100
AcDbEntity
  8
0
 62
     1
370
    13
100
AcDbLine
 10
2851.500300360666
 20
2987.825508248236
 30
0.0
 11
2852.450300360663
 21
2987.137055150649
 31
0.0
  0
LINE
  5
238B
102
{ACAD_REACTORS
330
23A3
102
}
330
1F
100
AcDbEntity
  8
0
 62
     1
370
    13
100
AcDbLine
 10
2852.450300360663
 20
2987.137055150649
 30
0.0
 11
2856.500300360666
 21
2989.72251960802
 31
0.0
  0
LINE
  5
238C
102
{ACAD_REACTORS
330
23A3
102
}
330
1F
100
AcDbEntity
  8
0
 62
     1
370
    13
100
AcDbLine
 10
2856.500300360666
 20
2987.535019608019
 30
0.0
 11
2855.552145452323
 21
2988.223949029364
 31
0.0
  0
LINE
  5
238D
102
{ACAD_REACTORS
330
23A3
102
}
330
1F
100
AcDbEntity
  8
0
 62
     1
370
    13
100
AcDbLine
 10
2852.450300360663
 20
2976.199555150643
 30
0.0
 11
2852.450300360663
 21
2975.30681073179
 31
0.0
  0
LINE
  5
238E
102
{ACAD_REACTORS
330
23A3
102
}
330
1F
100
AcDbEntity
  8
0
 62
     1
370
    13
100
AcDbLine
 10
2855.552145452323
 20
2977.286449029357
 30
0.0
 11
2851.500300360666
 21
2974.700508248229
 31
0.0
  0
LINE
  5
238F
102
{ACAD_REACTORS
330
23A3
102
}
330
1F
100
AcDbEntity
  8
0
 62
     1
370
    13
100
AcDbLine
 10
2851.500300360666
 20
2974.700508248229
 30
0.0
 11
2852.450300360663
 21
2974.012055150643
 31
0.0
  0
LINE
  5
2390
102
{ACAD_REACTORS
330
23A3
102
}
330
1F
100
AcDbEntity
  8
0
 62
     1
370
    13
100
AcDbLine
 10
2855.552145452323
 20
2979.47394902936
 30
0.0
 11
2851.500300360666
 21
2976.888008248232
 31
0.0
  0
LINE
  5
2391
102
{ACAD_REACTORS
330
23A3
102
}
330
1F
100
AcDbEntity
  8
0
 62
     1
370
    13
100
AcDbLine
 10
2852.450300360663
 20
2978.387055150645
 30
0.0
 11
2852.450300360663
 21
2977.49431073179
 31
0.0
  0
LINE
  5
2392
102
{ACAD_REACTORS
330
23A3
102
}
330
1F
100
AcDbEntity
  8
0
 62
     1
370
    13
100
AcDbLine
 10
2851.500300360666
 20
2976.888008248232
 30
0.0
 11
2852.450300360663
 21
2976.199555150643
 31
0.0
  0
LINE
  5
2393
102
{ACAD_REACTORS
330
23A3
102
}
330
1F
100
AcDbEntity
  8
0
 62
     1
370
    13
100
AcDbLine
 10
2852.450300360663
 20
2980.574555150646
 30
0.0
 11
2852.450300360663
 21
2979.681810731793
 31
0.0
  0
LINE
  5
2394
102
{ACAD_REACTORS
330
23A3
102
}
330
1F
100
AcDbEntity
  8
0
 62
     1
370
    13
100
AcDbLine
 10
2851.500300360666
 20
2979.075508248232
 30
0.0
 11
2852.450300360663
 21
2978.387055150645
 31
0.0
  0
LINE
  5
2395
102
{ACAD_REACTORS
330
23A3
102
}
330
1F
100
AcDbEntity
  8
0
 62
     1
370
    13
100
AcDbLine
 10
2855.550300360666
 20
2977.285271467618
 30
0.0
 11
2855.550300360666
 21
2978.178552636532
 31
0.0
  0
LINE
  5
2396
102
{ACAD_REACTORS
330
23A3
102
}
330
1F
100
AcDbEntity
  8
0
 62
     1
370
    13
100
AcDbLine
 10
2855.550300360666
 20
2979.472771467618
 30
0.0
 11
2855.550300360666
 21
2980.366052636535
 31
0.0
  0
LINE
  5
2397
102
{ACAD_REACTORS
330
23A3
102
}
330
1F
100
AcDbEntity
  8
0
 62
     1
370
    13
100
AcDbLine
 10
2852.450300360663
 20
2974.012055150643
 30
0.0
 11
2856.500300360666
 21
2976.597519608013
 31
0.0
  0
LINE
  5
2398
102
{ACAD_REACTORS
330
23A3
102
}
330
1F
100
AcDbEntity
  8
0
 62
     1
370
    13
100
AcDbLine
 10
2851.500300360666
 20
2974.700508248229
 30
0.0
 11
2856.500300360666
 21
2976.597519608013
 31
0.0
  0
LINE
  5
2399
102
{ACAD_REACTORS
330
23A3
102
}
330
1F
100
AcDbEntity
  8
0
 62
     1
370
    13
100
AcDbLine
 10
2852.450300360663
 20
2976.199555150643
 30
0.0
 11
2856.500300360666
 21
2978.785019608015
 31
0.0
  0
LINE
  5
239A
102
{ACAD_REACTORS
330
23A3
102
}
330
1F
100
AcDbEntity
  8
0
 62
     1
370
    13
100
AcDbLine
 10
2851.500300360666
 20
2976.888008248232
 30
0.0
 11
2856.500300360666
 21
2978.785019608015
 31
0.0
  0
LINE
  5
239B
102
{ACAD_REACTORS
330
23A3
102
}
330
1F
100
AcDbEntity
  8
0
 62
     1
370
    13
100
AcDbLine
 10
2852.450300360663
 20
2978.387055150645
 30
0.0
 11
2856.500300360666
 21
2980.972519608016
 31
0.0
  0
LINE
  5
239C
102
{ACAD_REACTORS
330
23A3
102
}
330
1F
100
AcDbEntity
  8
0
 62
     1
370
    13
100
AcDbLine
 10
2851.500300360666
 20
2979.075508248232
 30
0.0
 11
2856.500300360666
 21
2980.972519608016
 31
0.0
  0
LINE
  5
239D
102
{ACAD_REACTORS
330
23A3
102
}
330
1F
100
AcDbEntity
  8
0
 62
     1
370
    13
100
AcDbLine
 10
2856.500300360666
 20
2976.597519608013
 30
0.0
 11
2855.552145452323
 21
2977.286449029357
 31
0.0
  0
LINE
  5
239E
102
{ACAD_REACTORS
330
23A3
102
}
330
1F
100
AcDbEntity
  8
0
 62
     1
370
    13
100
AcDbLine
 10
2856.500300360666
 20
2978.785019608015
 30
0.0
 11
2855.552145452323
 21
2979.47394902936
 31
0.0
  0
LINE
  5
239F
102
{ACAD_REACTORS
330
23A3
102
}
330
1F
100
AcDbEntity
  8
0
 62
     1
370
    13
100
AcDbLine
 10
2855.552145452323
 20
2981.66144902936
 30
0.0
 11
2851.500300360666
 21
2979.075508248232
 31
0.0
  0
LINE
  5
23A0
102
{ACAD_REACTORS
330
23A3
102
}
330
1F
100
AcDbEntity
  8
0
 62
     1
370
    13
100
AcDbLine
 10
2851.500300360666
 20
2981.263008248234
 30
0.0
 11
2852.450300360663
 21
2980.574555150646
 31
0.0
  0
LINE
  5
23A1
102
{ACAD_REACTORS
330
23A3
102
}
330
1F
100
AcDbEntity
  8
0
 62
     1
370
    13
100
AcDbLine
 10
2852.450300360663
 20
2980.574555150646
 30
0.0
 11
2856.500300360666
 21
2983.160019608018
 31
0.0
  0
LINE
  5
23A2
102
{ACAD_REACTORS
330
23A3
102
}
330
1F
100
AcDbEntity
  8
0
 62
     1
370
    13
100
AcDbLine
 10
2856.500300360666
 20
2980.972519608016
 30
0.0
 11
2855.552145452323
 21
2981.66144902936
 31
0.0
  0
LEADER
  5
23B4
330
1F
100
AcDbEntity
  8
文字
370
    13
100
AcDbLeader
  3
ISO-25 1／10
 76
     3
 10
1629.0
 20
705.0
 30
0.0
 10
1686.333013733484
 20
605.696307262561
 30
0.0
 10
1900.43340964799
 20
605.696307262561
 30
0.0
1001
ACAD
1000
DSTYLE
1002
{
1070
   147
1040
0.75
1070
    77
1070
     0
1002
}
  0
MTEXT
  5
23B5
330
1F
100
AcDbEntity
  8
文字
370
    13
100
AcDbMText
 10
1697.103846204165
 20
612.5090954198569
 30
0.0
 40
37.5
 41
225.0
 71
     7
 72
     5
  1
下ガイド
 73
     1
 44
1.0
1001
ACAD
1000
MTEXTBEGIN
1070
    73
1070
     1
1070
    44
1040
1.0
1070
    74
1070
     0
1000
MTEXTEND
  0
LEADER
  5
23BC
330
1F
100
AcDbEntity
  8
文字
370
    13
100
AcDbLeader
  3
ISO-25 1／10
 76
     3
 10
1629.0
 20
3696.500442676397
 30
0.0
 10
1686.333013733484
 20
3597.196749938958
 30
0.0
 10
1900.433409647991
 20
3597.196749938958
 30
0.0
1001
ACAD
1000
DSTYLE
1002
{
1070
   147
1040
0.75
1070
    77
1070
     0
1002
}
  0
MTEXT
  5
23BD
330
1F
100
AcDbEntity
  8
文字
370
    13
100
AcDbMText
 10
1697.103846204165
 20
3604.009538096254
 30
0.0
 40
37.5
 41
225.0
 71
     7
 72
     5
  1
下ガイド
 73
     1
 44
1.0
1001
ACAD
1000
MTEXTBEGIN
1070
    73
1070
     1
1070
    44
1040
1.0
1070
    74
1070
     0
1000
MTEXTEND
  0
ENDSEC
  0
SECTION
  2
OBJECTS
  0
DICTIONARY
  5
C
330
0
100
AcDbDictionary
281
     1
  3
ACAD_GROUP
350
D
  3
ACAD_LAYOUT
350
1A
  3
ACAD_MLINESTYLE
350
17
  3
ACAD_PLOTSETTINGS
350
19
  3
ACAD_PLOTSTYLENAME
350
E
  0
DICTIONARY
  5
44
330
2
100
AcDbDictionary
280
     1
281
     1
  3
ACAD_LAYERFILTERS
360
45
  0
DICTIONARY
  5
299
330
298
100
AcDbDictionary
280
     1
281
     1
  3
ADSK_XREC_LAYER_RECONCILED
360
29A
  0
DICTIONARY
  5
D
102
{ACAD_REACTORS
330
C
102
}
330
C
100
AcDbDictionary
281
     1
  3
*A1
350
1543
  3
*A2
350
1D55
  3
*A3
350
1EC9
  3
*A4
350
1EC8
  3
*A5
350
1DBA
  3
*A6
350
1E00
  3
*A7
350
1E28
  3
*A8
350
179B
  3
*A9
350
18B1
  3
*A10
350
181A
  3
*A11
350
1CE0
  3
*A12
350
1FC7
  3
*A13
350
15D2
  3
*A14
350
15D7
  3
*A15
350
1670
  3
*A16
350
1D5C
  3
*A17
350
1FC3
  3
*A18
350
1671
  3
*A19
350
17BD
  3
*A20
350
1FC4
  3
*A21
350
1FC5
  3
*A22
350
1FC6
  3
*A23
350
1890
  3
*A24
350
1D15
  3
*A25
350
17AE
  3
*A26
350
23A3
  3
*A27
350
1D16
  3
*A28
350
1D17
  3
*A29
350
1D18
  3
*A30
350
1DA8
  3
*A31
350
1D88
  0
DICTIONARY
  5
1A
102
{ACAD_REACTORS
330
C
102
}
330
C
100
AcDbDictionary
281
     1
  3
Layout1
350
1E
  3
Layout2
350
26
  3
Model
350
22
  0
DICTIONARY
  5
17
102
{ACAD_REACTORS
330
C
102
}
330
C
100
AcDbDictionary
281
     1
  3
Standard
350
18
  0
DICTIONARY
  5
19
102
{ACAD_REACTORS
330
C
102
}
330
C
100
AcDbDictionary
281
     1
  0
ACDBDICTIONARYWDFLT
  5
E
102
{ACAD_REACTORS
330
C
102
}
330
C
100
AcDbDictionary
281
     1
  3
Normal
350
F
100
AcDbDictionaryWithDefault
340
F
  0
DICTIONARY
  5
45
102
{ACAD_REACTORS
330
44
102
}
330
44
100
AcDbDictionary
280
     1
281
     1
  3
-100
360
46
  3
-50
360
47
  3
-ben
360
48
  3
-H
360
49
  3
-T
360
4A
  3
$
360
4B
  3
$0$
360
4C
  3
0
360
4D
  3
0-
360
4E
  3
00
360
4F
  3
01
360
50
  3
01KUTAI
360
51
  3
01全体計画平面図
360
52
  3
02現況平面図
360
53
  3
03撤去平面図
360
54
  3
04造成平面図
360
55
  3
05
360
56
  3
05施設平面図
360
57
  3
06
360
58
  3
06siki
360
59
  3
06siki2
360
5A
  3
06排水平面図
360
5B
  3
07
360
5C
  3
07給水平面図
360
5D
  3
0割付平面図
360
5E
  3
0潅水平面
360
5F
  3
0計画平面
360
60
  3
0高木植栽
360
61
  3
0施設平面
360
62
  3
0床内
360
63
  3
0床壁
360
64
  3
0照明配置図
360
65
  3
0詳細図
360
66
  3
0植栽基盤
360
67
  3
0全体工区区分図
360
68
  3
0総合図off
360
69
  3
0総合図枠
360
6A
  3
0低木
360
6B
  3
0排水平面
360
6C
  3
0平詳枠
360
6D
  3
0擁壁平面図
360
6E
  3
1
360
6F
  3
10
360
70
  3
100
360
71
  3
10植栽平面図
360
72
  3
11
360
73
  3
1111
360
74
  3
11寸法図
360
75
  3
12
360
76
  3
19
360
77
  3
１Ｆ床伏OFF
360
78
  3
1階
360
79
  3
1床
360
7A
  3
1芯
360
7B
  3
1芯線
360
7C
  3
20
360
7D
  3
21
360
7E
  3
250
360
7F
  3
2fmiage
360
80
  3
2躯体
360
81
  3
2断面
360
82
  3
2壁
360
83
  3
300
360
84
  3
32
360
85
  3
333
360
86
  3
37
360
87
  3
3D
360
88
  3
3開口
360
89
  3
3見掛り
360
8A
  3
3天井内
360
8B
  3
41
360
8C
  3
4仕上げ
360
8D
  3
4天井
360
8E
  3
5
360
8F
  3
50
360
90
  3
50off
360
91
  3
51-52
360
92
  3
555
360
93
  3
5寸法
360
94
  3
5文字
360
95
  3
6
360
96
  3
66-躯体図
360
97
  3
66躯体図
360
98
  3
6記号
360
99
  3
6文字
360
9A
  3
6保留
360
9B
  3
767
360
9C
  3
767SE13-0...$
360
9D
  3
767SE13-07-99$0$
360
9E
  3
7記号
360
9F
  3
8
360
A0
  3
8寸法
360
A1
  3
8設備
360
A2
  3
9文字
360
A3
  3
9目地
360
A4
  3
A
360
A5
  3
A-
360
A6
  3
A(枠･表)を表示
360
A7
  3
A01
360
A8
  3
A1.DEMO-KEY NOTE
360
A9
  3
A2. CONS-KEY NOTE
360
AA
  3
A21
360
AB
  3
A3
360
AC
  3
A3. RCP-LAYER
360
AD
  3
A3D. RCP_DEMO-KEY NOTE
360
AE
  3
A4. P&T- KEY NOTE
360
AF
  3
A4D. EL_DEMO-KEY NOTE
360
B0
  3
A5. FINISH-KEY NOTE
360
B1
  3
A6. FURN-KEY NOTE
360
B2
  3
aa
360
B3
  3
aaa
360
B4
  3
AB棟
360
B5
  3
ＡＢ棟
360
B6
  3
ACTIVE
360
B7
  3
ACTIVE2
360
B8
  3
ALC
360
B9
  3
ALL
360
BA
  3
all選択
360
BB
  3
AMENAGEMENT
360
BC
  3
AQ
360
BD
  3
ARBOL
360
BE
  3
AREA
360
BF
  3
AREA-SG
360
C0
  3
AS1
360
C1
  3
aハッチング
360
C2
  3
A空調
360
C3
  3
B
360
C4
  3
B(基準)を表示
360
C5
  3
B2
360
C6
  3
B3
360
C7
  3
BAL
360
C8
  3
baru
360
C9
  3
baru2
360
CA
  3
BASE
360
CB
  3
bb
360
CC
  3
bbbb
360
CD
  3
beam
360
CE
  3
blocchi
360
CF
  3
blue
360
D0
  3
BSM
360
D1
  3
b階段
360
D2
  3
B電気
360
D3
  3
c
360
D4
  3
c-block
360
D5
  3
c-block-2
360
D6
  3
C(寸･文･記)を表示
360
D7
  3
cajetin
360
D8
  3
cc
360
D9
  3
CD06
360
DA
  3
ＣＤ棟
360
DB
  3
ceiling
360
DC
  3
CEILINGS XREF
360
DD
  3
CEL
360
DE
  3
che
360
DF
  3
chika
360
E0
  3
CLG
360
E1
  3
COL
360
E2
  3
cold beam
360
E3
  3
colu
360
E4
  3
com
360
E5
  3
con
360
E6
  3
CRG
360
E7
  3
cyan
360
E8
  3
C衛生
360
E9
  3
C街区関連
360
EA
  3
c雑金物
360
EB
  3
C打計画図
360
EC
  3
D
360
ED
  3
D(表現補助)を表示
360
EE
  3
Ｄ・墓地　施設平面
360
EF
  3
D16
360
F0
  3
DASHED
360
F1
  3
DASHED2
360
F2
  3
DEMO
360
F3
  3
DEMOLITION
360
F4
  3
detail
360
F5
  3
details
360
F6
  3
DHED
360
F7
  3
Dim
360
F8
  3
disegno
360
F9
  3
DOORS
360
FA
  3
DR
360
FB
  3
DT
360
FC
  3
d外構
360
FD
  3
Ｄ街区低木
360
FE
  3
D割付平面
360
FF
  3
Ｄ給水設備
360
100
  3
Ｄ計画高平面
360
101
  3
Ｄ計画平面
360
102
  3
Ｄ工事区分
360
103
  3
Ｄ高木植栽
360
104
  3
Ｄ施設平面
360
105
  3
Ｄ照明設備
360
106
  3
Ｄ低木
360
107
  3
Ｄ電気設備
360
108
  3
Ｄ土壌改良
360
109
  3
Ｄ排水平面
360
10A
  3
D舗装平面
360
10B
  3
Ｄ墓地施設平面
360
10C
  3
D墓地排水
360
10D
  3
E
360
10E
  3
E(点線系)を表示
360
10F
  3
EEEE
360
110
  3
EISEI
360
111
  3
ele
360
429
  3
elec
360
112
  3
ERAS1F
360
113
  3
existing
360
114
  3
Exit
360
115
  3
F
360
116
  3
F(断面)を表示
360
117
  3
F1
360
118
  3
face4
360
119
  3
FC_CLADDING
360
11A
  3
FENCE
360
11B
  3
FF
360
11C
  3
FH
360
11D
  3
FILTER1
360
11E
  3
fini
360
11F
  3
finish
360
120
  3
FIRE
360
121
  3
fixture
360
122
  3
fl
360
123
  3
Floor
360
124
  3
FLOOR PLAN
360
125
  3
fr
360
126
  3
freeze
360
127
  3
FRZ
360
128
  3
Fugou
360
129
  3
FUGOU-TATEGU
360
12A
  3
FUKI
360
12B
  3
FURN
360
12C
  3
FURNITURE
360
12D
  3
FUSE_00
360
12E
  3
G
360
12F
  3
G(開口)を表示
360
130
  3
GAIKOU
360
131
  3
gel
360
132
  3
gen
360
133
  3
gondora
360
134
  3
green
360
135
  3
GRID
360
136
  3
gris
360
137
  3
H
360
138
  3
H-
360
139
  3
H-SIN
360
13A
  3
H(見掛)を表示
360
13B
  3
HA
360
13C
  3
haikin
360
13D
  3
HAISEN
360
13E
  3
HARI
360
13F
  3
hasira
360
140
  3
HATCH
360
141
  3
HCP
360
142
  3
HEISHO
360
143
  3
HEISHO2
360
144
  3
HIDDEN
360
145
  3
HOJO
360
146
  3
hollywood
360
147
  3
HOTEL
360
148
  3
huse
360
149
  3
HYOKI
360
14A
  3
HYOUKI
360
14B
  3
i
360
14C
  3
I(二次部材系))を表示
360
14D
  3
I2
360
14E
  3
i2cl
360
14F
  3
i5
360
150
  3
i9
360
151
  3
in
360
152
  3
INSERT図
360
153
  3
ISSUE
360
154
  3
J
360
155
  3
K
360
156
  3
KABE
360
157
  3
KABESHIN
360
158
  3
KAGU
360
159
  3
key
360
15A
  3
KI
360
15B
  3
KIGO
360
15C
  3
KIJUN
360
15D
  3
kiso
360
15E
  3
KSIN
360
15F
  3
kui
360
160
  3
KUTAI
360
161
  3
L
360
162
  3
LEGEND
360
163
  3
LGS
360
164
  3
light
360
165
  3
LIST
360
166
  3
lixo
360
167
  3
LOCK
360
168
  3
LTA
360
169
  3
Ｌ建具
360
16A
  3
M
360
16B
  3
MA
360
16C
  3
MACONNERIE
360
16D
  3
magenta
360
16E
  3
magenta-bleu
360
16F
  3
maji
360
170
  3
MAJIKIRI
360
171
  3
marco
360
172
  3
MB
360
173
  3
meji
360
174
  3
merceologico
360
175
  3
MILL
360
176
  3
MILLWORK
360
177
  3
miwa
360
178
  3
MOJI
360
179
  3
MOJI100
360
17A
  3
N
360
17B
  3
N-
360
17C
  3
NAM
360
17D
  3
NEW
360
17E
  3
NHK
360
17F
  3
niimi
360
42A
  3
no xref
360
180
  3
note
360
181
  3
NUM
360
182
  3
NUMB
360
183
  3
O
360
184
  3
OF
360
185
  3
OFF
360
186
  3
on
360
187
  3
option 1
360
188
  3
option 2
360
189
  3
OUTLINE
360
18A
  3
P
360
18B
  3
pa
360
18C
  3
PALFOND
360
18D
  3
PAT
360
18E
  3
PC
360
18F
  3
PISO
360
190
  3
PLAN
360
191
  3
PLMB
360
192
  3
plot
360
193
  3
PLUMB
360
194
  3
PNL
360
195
  3
power
360
196
  3
PRT
360
197
  3
q
360
198
  3
R
360
199
  3
rack
360
19A
  3
RC
360
19B
  3
RCP
360
19C
  3
rm
360
19D
  3
RMTAGS
360
19E
  3
RNUM
360
19F
  3
ROOM
360
1A0
  3
roomno
360
1A1
  3
rouge
360
1A2
  3
rtkl
360
1A3
  3
S
360
1A4
  3
saciencewold
360
1A5
  3
SETUBI
360
1A6
  3
SHITU
360
1A7
  3
SHITUMEI
360
1A8
  3
SIAG
360
1A9
  3
SIAG-N
360
1AA
  3
SIAG3
360
1AB
  3
sin
360
1AC
  3
Sinm
360
1AD
  3
SITA
360
1AE
  3
siyah
360
1AF
  3
SS
360
1B0
  3
ST
360
1B1
  3
STA
360
1B2
  3
stairs
360
1B3
  3
SUGA5
360
1B4
  3
SUNP
360
1B5
  3
SUNP100
360
1B6
  3
T
360
1B7
  3
TAKASA
360
1B8
  3
TATE161
360
1B9
  3
TATEGU
360
1BA
  3
ten
360
1BB
  3
TENJYOU
360
1BC
  3
TENJYOUNAI
360
1BD
  3
test
360
1BE
  3
text
360
1BF
  3
thaw
360
1C0
  3
TITL
360
1C1
  3
tnjyou
360
1C2
  3
tori
360
1C3
  3
TORISHIN
360
1C4
  3
tr
360
1C5
  3
TSIN
360
1C6
  3
TXT
360
1C7
  3
UNFREEZ
360
1C8
  3
UNROCK
360
1C9
  3
wada
360
1CA
  3
waku
360
1CB
  3
X
360
1CC
  3
X(敷地)を表示
360
1CD
  3
xref
360
1CE
  3
YAJI
360
1CF
  3
yellow
360
1D0
  3
YUKA
360
1D1
  3
yその他
360
1D2
  3
Z
360
1D3
  3
ZATU
360
1D4
  3
z図枠
360
1D5
  3
к
360
1D6
  3
перегородки
360
1D7
  3
イベント給水
360
1D8
  3
ガラス
360
1D9
  3
キ-プラン
360
1DA
  3
キープラン
360
1DB
  3
さーくる
360
1DC
  3
シェルター
360
1DD
  3
すべてに反映
360
1DE
  3
スロープ
360
1DF
  3
タイル割付平面図
360
1E0
  3
ﾃｷｽﾄのみ表示
360
1E1
  3
ハッチング
360
1E2
  3
フリーズ
360
1E3
  3
フリーズof
360
1E4
  3
ﾌﾘｰｽﾞ画層非表示
360
1E5
  3
ﾌﾘｰｽﾞ画面非表示
360
1E6
  3
ﾌﾘｰｽﾞ解除
360
1E7
  3
フリーズ解除
360
1E8
  3
ﾌﾟﾚｾﾞﾝ枠
360
1E9
  3
マーク
360
1EA
  3
ﾒｲﾝﾌﾟﾗｻﾞ
360
1EB
  3
レベル
360
1EC
  3
ロック
360
1ED
  3
一括非表示
360
1EE
  3
一般図
360
1EF
  3
印刷
360
1F0
  3
荏原機器
360
1F1
  3
荏原機器基礎
360
1F2
  3
衛生設備図
360
1F3
  3
黄色
360
1F4
  3
下階
360
1F5
  3
下地
360
1F6
  3
外構
360
1F7
  3
外部参照－建築
360
1F8
  3
外部参照除く
360
1F9
  3
割り付け平面図
360
1FA
  3
割付平面図
360
1FB
  3
潅水平面
360
1FC
  3
基
360
1FD
  3
基準
360
1FE
  3
基準階
360
1FF
  3
基礎OFF
360
200
  3
基礎伏
360
201
  3
基礎伏図
360
202
  3
基盤改良平面図
360
203
  3
既存杭
360
204
  3
機器
360
205
  3
機器基礎
360
206
  3
記号
360
207
  3
給水設備平面図
360
208
  3
給水平面
360
209
  3
区画
360
20A
  3
躯体
360
20B
  3
躯体図
360
20C
  3
空調jv
360
20D
  3
空調設備図
360
20E
  3
郡川
360
20F
  3
型枠計画図
360
210
  3
計画高平面図
360
211
  3
計画平面
360
212
  3
計画平面図
360
213
  3
劇場ﾌﾟﾗｻﾞ
360
214
  3
劇場棟
360
215
  3
建具
360
216
  3
建築接地図
360
217
  3
見上げ
360
218
  3
現在非表示画層
360
219
  3
光天井
360
21A
  3
公園
360
21B
  3
工事区分図
360
21C
  3
工事区分図AB
360
21D
  3
工事区分図CD
360
21E
  3
高さ
360
21F
  3
高木植栽平面
360
220
  3
高木平面図
360
221
  3
座席のみ
360
222
  3
作業
360
223
  3
参考
360
224
  3
山止根切計画図
360
225
  3
仕
360
226
  3
仕上
360
227
  3
仕上図
360
228
  3
使用中
360
229
  3
施設配置図
360
22A
  3
施設平面
360
22B
  3
施設平面図
360
22C
  3
紫
360
22D
  3
床伏図
360
22E
  3
昇降機
360
22F
  3
照明
360
230
  3
照明Ｃ１
360
231
  3
照明Ｃ２
360
232
  3
照明配置図
360
233
  3
詳細
360
234
  3
詳細図
360
235
  3
上階躯体図
360
236
  3
植栽
360
237
  3
植栽基盤平面
360
238
  3
植栽現況
360
239
  3
植栽高木AB
360
23A
  3
植栽高木CD
360
23B
  3
植栽低木AB
360
23C
  3
植栽低木ＣＤ
360
23D
  3
色番号8
360
23E
  3
申請用
360
23F
  3
芯
360
240
  3
芯関係
360
241
  3
水
360
242
  3
水色
360
243
  3
寸法
360
244
  3
製作
360
245
  3
製作-躯体
360
246
  3
製作-建築
360
247
  3
製作-昇降機
360
248
  3
青
360
249
  3
設備
360
24A
  3
設備プロット
360
24B
  3
全階平面図
360
24C
  3
総合仮設図
360
24D
  3
総合図
360
24E
  3
足場計画図
360
24F
  3
地下埋設
360
250
  3
中野
360
251
  3
低木植栽平面
360
252
  3
低木平面図
360
253
  3
鉄骨
360
254
  3
鉄骨建方計画図
360
255
  3
天井インサート図
360
256
  3
天井総合図
360
257
  3
天井伏図
360
258
  3
天伏
360
259
  3
電気設備図
360
25A
  3
土壌改良
360
25B
  3
土木計画平面図
360
25C
  3
道路
360
25D
  3
道路関係図
360
25E
  3
排水
360
25F
  3
排水設備平面図
360
260
  3
排水平面
360
261
  3
配管
360
262
  3
非表示
360
263
  3
非表示ﾚｲﾔｰ
360
264
  3
表示
360
265
  3
表示・非表示
360
266
  3
表示2
360
267
  3
分割枠
360
268
  3
平面詳細図
360
269
  3
平面図
360
26A
  3
平面総合図
360
26B
  3
変更分
360
26C
  3
舗装平面
360
26D
  3
舗装平面C1
360
26E
  3
舗装平面C2
360
26F
  3
舗装平面図
360
270
  3
法規チェック－区画
360
271
  3
法規チェック－範囲
360
272
  3
鳳文字入力
360
273
  3
防災
360
274
  3
名称
360
275
  3
面積
360
276
  3
擁壁平面図
360
277
  3
用途色塗
360
278
  3
立面図
360
279
  3
梁
360
27A
  3
緑
360
27B
  0
XRECORD
  5
29A
102
{ACAD_REACTORS
330
299
102
}
330
299
100
AcDbXrecord
280
     1
290
     1
  0
GROUP
  5
1543
102
{ACAD_REACTORS
330
D
102
}
330
D
100
AcDbGroup
300

 70
     1
 71
     1
340
14D6
340
1542
340
14FF
340
1528
  0
GROUP
  5
1D55
102
{ACAD_REACTORS
330
D
102
}
330
D
100
AcDbGroup
300

 70
     1
 71
     1
  0
GROUP
  5
1EC9
102
{ACAD_REACTORS
330
D
102
}
330
D
100
AcDbGroup
300

 70
     1
 71
     1
340
14D5
340
14CE
340
14CD
340
14CC
340
14D2
340
14D1
340
14D0
340
14CF
340
14C8
340
14C9
  0
GROUP
  5
1EC8
102
{ACAD_REACTORS
330
D
102
}
330
D
100
AcDbGroup
300

 70
     1
 71
     1
340
14CB
340
14CA
  0
GROUP
  5
1DBA
102
{ACAD_REACTORS
330
D
102
}
330
D
100
AcDbGroup
300

 70
     1
 71
     1
340
1DAC
340
1DAD
340
1DAE
340
1DAF
340
1DA9
340
1DB0
340
1DB1
340
1DB2
340
1DB3
340
1DB4
340
1DB5
340
1DB6
340
1DB7
340
1DB8
340
1DB9
340
1DAB
340
1DAA
  0
GROUP
  5
1E00
102
{ACAD_REACTORS
330
D
102
}
330
D
100
AcDbGroup
300

 70
     1
 71
     1
340
1DDD
340
1DDC
340
1DDB
340
1DDA
340
1DD9
340
1DD8
340
1DD7
340
1DD6
340
1DD5
340
1DD4
340
1DD3
340
1DD2
340
1DD1
340
1DD0
340
1DCF
340
1DCE
340
1DCB
340
1DCA
340
1DC9
340
1DC8
  0
GROUP
  5
1E28
102
{ACAD_REACTORS
330
D
102
}
330
D
100
AcDbGroup
300

 70
     1
 71
     1
340
1E03
340
1E02
340
1E01
  0
GROUP
  5
179B
102
{ACAD_REACTORS
330
D
102
}
330
D
100
AcDbGroup
300

 70
     1
 71
     1
340
1713
340
1712
340
1711
340
1710
340
1706
340
1705
340
1704
340
170E
340
170D
340
170C
340
170B
340
170A
340
1709
340
1707
340
1701
340
1700
340
16FF
340
170F
  0
GROUP
  5
18B1
102
{ACAD_REACTORS
330
D
102
}
330
D
100
AcDbGroup
300

 70
     1
 71
     1
340
14D4
340
14D3
  0
GROUP
  5
181A
102
{ACAD_REACTORS
330
D
102
}
330
D
100
AcDbGroup
300

 70
     1
 71
     1
  0
GROUP
  5
1CE0
102
{ACAD_REACTORS
330
D
102
}
330
D
100
AcDbGroup
300

 70
     1
 71
     1
340
1C9A
340
1C99
340
1C98
340
1C97
340
1C92
340
1C8A
340
1C7F
340
1C90
340
1C8F
340
1C8E
340
1C8D
340
1C8C
340
1C8B
340
1C89
340
1C7E
340
1C7D
340
1C7C
340
1C7B
340
1C9B
340
1C96
340
1C95
340
1C94
340
1C93
340
1C91
340
1C88
340
1C87
340
1C86
340
1C85
340
1C84
340
1C83
340
1C82
340
1C81
340
1C80
340
1C7A
  0
GROUP
  5
1FC7
102
{ACAD_REACTORS
330
D
102
}
330
D
100
AcDbGroup
300

 70
     1
 71
     1
340
1FAE
340
1FAD
340
1FBA
340
1FAF
340
1FAC
340
1FAA
340
1F60
340
1FC2
340
1FC1
340
1FBD
340
1FBC
340
1FBB
340
1FA7
340
1FA5
340
1FA2
340
1FA1
340
1F9F
340
1F81
340
1F74
340
1F72
340
1FC0
340
1FBF
340
1FBE
340
1FB9
340
1FB8
340
1FB7
340
1FB6
340
1FB5
340
1FB4
340
1FB3
340
1FB2
340
1FB1
340
1FB0
340
1FAB
340
1FA9
340
1FA8
340
1FA6
340
1FA4
340
1FA3
340
1FA0
340
1F9E
340
1F9D
340
1F9C
340
1F9B
340
1F9A
340
1F99
340
1F98
340
1F97
340
1F96
340
1F95
340
1F94
340
1F93
340
1F92
340
1F91
340
1F90
340
1F8F
340
1F8E
340
1F8D
340
1F8C
340
1F8B
340
1F8A
340
1F89
340
1F88
340
1F87
340
1F86
340
1F85
340
1F84
340
1F83
340
1F80
340
1F7F
340
1F7E
340
1F7D
340
1F7C
340
1F7B
340
1F7A
340
1F79
340
1F78
340
1F77
340
1F76
340
1F75
340
1F82
340
1F73
340
1F71
340
1F70
340
1F6F
340
1F6E
340
1F6D
340
1F6C
340
1F6B
340
1F6A
340
1F69
340
1F68
340
1F67
340
1F66
340
1F65
340
1F64
340
1F63
340
1F62
340
1F61
  0
GROUP
  5
15D2
102
{ACAD_REACTORS
330
D
102
}
330
D
100
AcDbGroup
300

 70
     1
 71
     1
340
15A5
340
15A4
340
15A3
340
15A2
340
15A1
340
15A0
340
159F
340
159E
340
159D
340
159C
340
159B
340
159A
340
1599
340
1598
340
1597
340
1596
340
1595
340
1594
340
1593
340
1592
340
1591
340
1590
340
158F
340
158E
340
158D
340
158C
340
158B
340
158A
340
1589
340
1588
340
1587
340
1586
340
1585
340
1584
340
1583
340
1582
340
1581
340
1580
340
157F
340
157E
340
157D
340
157C
340
157B
340
157A
340
1579
340
1578
340
1577
340
1576
340
1575
340
1574
340
1573
340
1572
340
1571
340
1570
340
156F
340
156E
340
156D
340
156C
340
156B
340
156A
340
1569
340
1568
340
1567
340
1566
340
1565
340
1564
340
1563
340
1562
340
1561
340
1560
340
155F
340
155E
340
155D
340
155C
  0
GROUP
  5
15D7
102
{ACAD_REACTORS
330
D
102
}
330
D
100
AcDbGroup
300

 70
     1
 71
     1
  0
GROUP
  5
1670
102
{ACAD_REACTORS
330
D
102
}
330
D
100
AcDbGroup
300

 70
     1
 71
     1
340
1601
340
1617
340
1618
340
1619
340
161A
340
161B
340
1600
340
161C
340
1609
340
161E
340
1602
340
1603
340
1604
340
1605
340
1606
340
1607
340
15FC
340
1608
340
15FF
340
160F
340
1610
340
1611
340
1612
340
1613
340
1614
340
1615
340
1616
340
161D
  0
GROUP
  5
1D5C
102
{ACAD_REACTORS
330
D
102
}
330
D
100
AcDbGroup
300

 70
     1
 71
     1
340
1D57
340
1D58
340
1D59
340
1D5A
340
1D56
340
1D5B
  0
GROUP
  5
1FC3
102
{ACAD_REACTORS
330
D
102
}
330
D
100
AcDbGroup
300

 70
     1
 71
     1
340
1FAD
340
1FAE
340
1FAC
340
1FAB
340
1FAF
340
1FA0
340
1FB0
340
1FB1
340
1FB2
340
1FB3
340
1FB4
340
1FB5
340
1FB6
340
1FB7
340
1FB8
340
1FB9
340
1FAA
340
1FA9
340
1FA8
340
1FA7
340
1FA6
340
1FA5
340
1FBA
340
1FBB
340
1FBC
340
1FBD
340
1FBE
340
1FA4
340
1FBF
340
1FC0
340
1FC1
340
1FA3
340
1F9F
340
1FC2
340
1FA2
340
1FA1
  0
GROUP
  5
1671
102
{ACAD_REACTORS
330
D
102
}
330
D
100
AcDbGroup
300

 70
     1
 71
     1
340
15EE
340
15EF
340
15F6
340
15F7
340
15F8
340
15F9
340
15FA
340
15FB
340
15FD
340
15FE
340
160A
340
160B
340
160C
340
160D
340
160E
340
161F
340
1620
340
1621
340
1622
340
1623
340
1624
340
1625
340
1626
340
1627
340
1628
340
1629
340
162A
340
162B
340
162C
340
162D
340
162E
340
162F
340
1630
340
1631
340
1632
340
1633
  0
GROUP
  5
17BD
102
{ACAD_REACTORS
330
D
102
}
330
D
100
AcDbGroup
300

 70
     1
 71
     1
340
1730
340
172D
340
172C
340
172B
340
1702
340
172F
340
172E
340
1728
340
1727
340
16FE
340
16FD
340
16FC
340
16FB
  0
GROUP
  5
1FC4
102
{ACAD_REACTORS
330
D
102
}
330
D
100
AcDbGroup
300

 70
     1
 71
     1
340
1F87
340
1F84
340
1F83
340
1F88
340
1F89
340
1F8A
340
1F8B
340
1F8C
340
1F8D
340
1F8E
340
1F8F
340
1F90
340
1F91
340
1F92
340
1F93
340
1F94
340
1F95
340
1F96
340
1F97
340
1F98
340
1F86
340
1F85
340
1F99
340
1F9A
340
1F9B
340
1F9C
340
1F9D
340
1F9E
  0
GROUP
  5
1FC5
102
{ACAD_REACTORS
330
D
102
}
330
D
100
AcDbGroup
300

 70
     1
 71
     1
340
1F75
340
1F76
340
1F77
340
1F78
340
1F72
340
1F79
340
1F7A
340
1F7B
340
1F7C
340
1F7D
340
1F7E
340
1F7F
340
1F80
340
1F73
340
1F74
340
1F81
340
1F82
  0
GROUP
  5
1FC6
102
{ACAD_REACTORS
330
D
102
}
330
D
100
AcDbGroup
300

 70
     1
 71
     1
340
1F62
340
1F63
340
1F64
340
1F65
340
1F61
340
1F66
340
1F67
340
1F68
340
1F69
340
1F6A
340
1F6B
340
1F6C
340
1F6D
340
1F6E
340
1F6F
340
1F70
340
1F71
  0
GROUP
  5
1890
102
{ACAD_REACTORS
330
D
102
}
330
D
100
AcDbGroup
300

 70
     1
 71
     1
340
1880
340
1881
340
1882
340
1883
340
1884
340
1885
340
1886
340
187F
340
1887
340
1888
340
1889
340
188A
340
187E
340
188B
340
188C
340
188D
340
188E
340
188F
  0
GROUP
  5
1D15
102
{ACAD_REACTORS
330
D
102
}
330
D
100
AcDbGroup
300

 70
     1
 71
     1
  0
GROUP
  5
17AE
102
{ACAD_REACTORS
330
D
102
}
330
D
100
AcDbGroup
300

 70
     1
 71
     1
  0
GROUP
  5
23A3
102
{ACAD_REACTORS
330
D
102
}
330
D
100
AcDbGroup
300

 70
     1
 71
     1
340
238C
340
238B
340
2389
340
2372
340
2360
340
23A2
340
23A1
340
23A0
340
239F
340
239E
340
239D
340
239C
340
239B
340
239A
340
2399
340
2398
340
2397
340
2396
340
2395
340
2394
340
2393
340
2392
340
2391
340
2390
340
238F
340
238E
340
238D
340
238A
340
2388
340
2387
340
2386
340
2385
340
2384
340
2383
340
2382
340
2381
340
2380
340
237F
340
237E
340
237D
340
237C
340
237B
340
237A
340
2379
340
2354
340
2353
340
2352
340
2351
340
2350
340
234F
340
234E
340
234D
340
234C
340
234B
340
234A
340
2349
340
2348
340
2347
340
2346
340
2345
340
2344
340
2343
340
2342
340
2341
340
2340
340
233F
340
233E
340
233D
340
233C
340
233B
340
233A
340
2339
340
2338
340
2337
340
2336
340
2335
340
2334
340
2333
340
2332
340
2331
340
2330
340
232F
340
232E
340
232D
340
232C
340
232B
340
232A
340
2329
340
2328
340
2327
340
2326
340
2325
340
2324
340
2323
340
2378
340
2377
340
2376
340
2375
340
2374
340
2373
340
2371
340
2370
340
236F
340
236E
340
236D
340
236C
340
236B
340
236A
340
2369
340
2368
340
2367
340
2366
340
2365
340
2364
340
2363
340
2362
340
2361
340
235F
340
235E
340
235D
340
235C
340
235B
340
235A
340
2359
340
2358
340
2357
340
2356
340
2355
  0
GROUP
  5
1D16
102
{ACAD_REACTORS
330
D
102
}
330
D
100
AcDbGroup
300

 70
     1
 71
     1
  0
GROUP
  5
1D17
102
{ACAD_REACTORS
330
D
102
}
330
D
100
AcDbGroup
300

 70
     1
 71
     1
  0
GROUP
  5
1D18
102
{ACAD_REACTORS
330
D
102
}
330
D
100
AcDbGroup
300

 70
     1
 71
     1
  0
GROUP
  5
1DA8
102
{ACAD_REACTORS
330
D
102
}
330
D
100
AcDbGroup
300

 70
     1
 71
     1
340
1722
340
1721
340
1720
340
171C
340
1716
340
1725
340
1724
340
1723
340
171F
340
171E
340
171D
340
171B
340
171A
340
1718
340
1717
340
1715
340
1714
  0
GROUP
  5
1D88
102
{ACAD_REACTORS
330
D
102
}
330
D
100
AcDbGroup
300

 70
     1
 71
     1
340
1D87
340
1D86
340
1D85
340
1D84
340
1D83
340
1D82
340
1D81
340
1D80
340
1D7F
340
1D7E
340
1D7D
340
1D7C
340
1D7B
340
1D7A
340
1D79
340
1D78
340
1D77
340
1D76
340
1D75
340
1D74
340
1D73
340
1D72
340
1D71
340
1D70
340
1D6F
340
1D6E
340
1D6D
340
1D6C
  0
LAYOUT
  5
1E
102
{ACAD_REACTORS
330
1A
102
}
330
1A
100
AcDbPlotSettings
  1

  2

  4

  6

 40
0.0
 41
0.0
 42
0.0
 43
0.0
 44
0.0
 45
0.0
 46
0.0
 47
0.0
 48
0.0
 49
0.0
140
0.0
141
0.0
142
1.0
143
1.0
 70
   688
 72
     0
 73
     0
 74
     5
  7
monochrome.ctb
 75
    16
147
1.0
148
0.0
149
0.0
100
AcDbLayout
  1
Layout1
 70
     1
 71
     1
 10
0.0
 20
0.0
 11
420.0
 21
297.0
 12
0.0
 22
0.0
 32
0.0
 14
1.000000000000000E+20
 24
1.000000000000000E+20
 34
1.000000000000000E+20
 15
-1.000000000000000E+20
 25
-1.000000000000000E+20
 35
-1.000000000000000E+20
146
0.0
 13
0.0
 23
0.0
 33
0.0
 16
1.0
 26
0.0
 36
0.0
 17
0.0
 27
1.0
 37
0.0
 76
     0
330
1B
  0
LAYOUT
  5
26
102
{ACAD_REACTORS
330
1A
102
}
330
1A
100
AcDbPlotSettings
  1

  2

  4

  6

 40
0.0
 41
0.0
 42
0.0
 43
0.0
 44
0.0
 45
0.0
 46
0.0
 47
0.0
 48
0.0
 49
0.0
140
0.0
141
0.0
142
1.0
143
1.0
 70
   688
 72
     0
 73
     0
 74
     5
  7
monochrome.ctb
 75
    16
147
1.0
148
0.0
149
0.0
100
AcDbLayout
  1
Layout2
 70
     1
 71
     2
 10
0.0
 20
0.0
 11
12.0
 21
9.0
 12
0.0
 22
0.0
 32
0.0
 14
0.0
 24
0.0
 34
0.0
 15
0.0
 25
0.0
 35
0.0
146
0.0
 13
0.0
 23
0.0
 33
0.0
 16
1.0
 26
0.0
 36
0.0
 17
0.0
 27
1.0
 37
0.0
 76
     0
330
23
  0
LAYOUT
  5
22
102
{ACAD_REACTORS
330
1A
102
}
330
1A
100
AcDbPlotSettings
  1

  2
Adobe PDF（横方向）.pc3
  4
A3
  6

 40
3.174999952316284
 41
3.174999952316284
 42
3.17498779296875
 43
3.17498779296875
 44
420.1583251953125
 45
297.0318298339843
 46
0.0
 47
2.049999999999999
 48
0.0
 49
0.0
140
0.0
141
0.0
142
1.0
143
0.9667680132743727
 70
 11956
 72
     1
 73
     0
 74
     1
  7
monochrome.ctb
 75
     0
147
1.034374313454034
148
-9.984085509508304
149
-9.955206114818111
100
AcDbLayout
  1
Model
 70
     1
 71
     0
 10
0.0
 20
0.0
 11
12.0
 21
9.0
 12
0.0
 22
0.0
 32
0.0
 14
0.0
 24
0.0
 34
0.0
 15
0.0
 25
0.0
 35
0.0
146
0.0
 13
0.0
 23
0.0
 33
0.0
 16
1.0
 26
0.0
 36
0.0
 17
0.0
 27
1.0
 37
0.0
 76
     0
330
1F
  0
MLINESTYLE
  5
18
102
{ACAD_REACTORS
330
17
102
}
330
17
100
AcDbMlineStyle
  2
STANDARD
 70
     0
  3

 62
   256
 51
90.0
 52
90.0
 71
     2
 49
0.5
 62
   256
  6
BYLAYER
 49
-0.5
 62
   256
  6
BYLAYER
  0
ACDBPLACEHOLDER
  5
F
102
{ACAD_REACTORS
330
E
102
}
330
E
  0
XRECORD
  5
46
102
{ACAD_REACTORS
330
45
102
}
330
45
100
AcDbXrecord
280
     1
  1
-100
  1
*-100
  1
*
  1
*
 70
     0
  1
*
  1
*
  0
XRECORD
  5
47
102
{ACAD_REACTORS
330
45
102
}
330
45
100
AcDbXrecord
280
     1
  1
-50
  1
*-50
  1
*
  1
*
 70
     0
  1
*
  1
*
  0
XRECORD
  5
48
102
{ACAD_REACTORS
330
45
102
}
330
45
100
AcDbXrecord
280
     1
  1
-ben
  1
ben*
  1
*
  1
*
 70
     0
  1
*
  1
*
  0
XRECORD
  5
49
102
{ACAD_REACTORS
330
45
102
}
330
45
100
AcDbXrecord
280
     1
  1
-H
  1
00*,01*,02*,05*,1*,2*,3*,4*,5*,6*,8*
  1
*
  1
*
 70
     0
  1
*
  1
*
  0
XRECORD
  5
4A
102
{ACAD_REACTORS
330
45
102
}
330
45
100
AcDbXrecord
280
     1
  1
-T
  1
00*,01*,03*,05*,1*,20*,21*,22*,23*,24*,25*,26*,27*,29*,2a*,3*,4*,7*,9*
  1
*
  1
*
 70
     0
  1
*
  1
*
  0
XRECORD
  5
4B
102
{ACAD_REACTORS
330
45
102
}
330
45
100
AcDbXrecord
280
     1
  1
$
  1
*$0$*
  1
*
  1
*
 70
     0
  1
*
  1
*
  0
XRECORD
  5
4C
102
{ACAD_REACTORS
330
45
102
}
330
45
100
AcDbXrecord
280
     1
  1
$0$
  1
$0$*
  1
*
  1
*
 70
     0
  1
*
  1
*
  0
XRECORD
  5
4D
102
{ACAD_REACTORS
330
45
102
}
330
45
100
AcDbXrecord
280
     1
  1
0
  1
0*
  1
*
  1
*
 70
     0
  1
*
  1
*
  0
XRECORD
  5
4E
102
{ACAD_REACTORS
330
45
102
}
330
45
100
AcDbXrecord
280
     1
  1
0-
  1
0-*
  1
*
  1
*
 70
     0
  1
*
  1
*
  0
XRECORD
  5
4F
102
{ACAD_REACTORS
330
45
102
}
330
45
100
AcDbXrecord
280
     1
  1
00
  1
*-100
  1
*
  1
*
 70
     0
  1
*
  1
*
  0
XRECORD
  5
50
102
{ACAD_REACTORS
330
45
102
}
330
45
100
AcDbXrecord
280
     1
  1
01
  1
0*a*
  1
*
  1
*
 70
     0
  1
*
  1
*
  0
XRECORD
  5
51
102
{ACAD_REACTORS
330
45
102
}
330
45
100
AcDbXrecord
280
     1
  1
01KUTAI
  1
01KUTAI
  1
*
  1
*
 70
     0
  1
*
  1
*
  0
XRECORD
  5
52
102
{ACAD_REACTORS
330
45
102
}
330
45
100
AcDbXrecord
280
     1
  1
01全体計画平面図
  1
00*,02*,0A*
  1
*
  1
*
 70
     0
  1
*
  1
*
  0
XRECORD
  5
53
102
{ACAD_REACTORS
330
45
102
}
330
45
100
AcDbXrecord
280
     1
  1
02現況平面図
  1
00*,01*,0B*
  1
*
  1
*
 70
     0
  1
*
  1
*
  0
XRECORD
  5
54
102
{ACAD_REACTORS
330
45
102
}
330
45
100
AcDbXrecord
280
     1
  1
03撤去平面図
  1
00*,01*,0C*
  1
*
  1
*
 70
     0
  1
*
  1
*
  0
XRECORD
  5
55
102
{ACAD_REACTORS
330
45
102
}
330
45
100
AcDbXrecord
280
     1
  1
04造成平面図
  1
00*,02計*,0D*,03*,01*
  1
*
  1
*
 70
     0
  1
*
  1
*
  0
XRECORD
  5
56
102
{ACAD_REACTORS
330
45
102
}
330
45
100
AcDbXrecord
280
     1
  1
05
  1
*05*
  1
*
  1
*
 70
     0
  1
*
  1
*
  0
XRECORD
  5
57
102
{ACAD_REACTORS
330
45
102
}
330
45
100
AcDbXrecord
280
     1
  1
05施設平面図
  1
00*,02*,0E*,05*
  1
*
  1
*
 70
     0
  1
*
  1
*
  0
XRECORD
  5
58
102
{ACAD_REACTORS
330
45
102
}
330
45
100
AcDbXrecord
280
     1
  1
06
  1
06*
  1
*
  1
*
 70
     0
  1
*
  1
*
  0
XRECORD
  5
59
102
{ACAD_REACTORS
330
45
102
}
330
45
100
AcDbXrecord
280
     1
  1
06siki
  1
06*siki*,sikiti,00waku,*|*
  1
*
  1
*
 70
     0
  1
*
  1
*
  0
XRECORD
  5
5A
102
{ACAD_REACTORS
330
45
102
}
330
45
100
AcDbXrecord
280
     1
  1
06siki2
  1
06*siki*,sikiti,00waku,*|*
  1
*
  1
*
 70
     0
  1
*
  1
*
  0
XRECORD
  5
5B
102
{ACAD_REACTORS
330
45
102
}
330
45
100
AcDbXrecord
280
     1
  1
06排水平面図
  1
00*,02*,0F*
  1
*
  1
*
 70
     0
  1
*
  1
*
  0
XRECORD
  5
5C
102
{ACAD_REACTORS
330
45
102
}
330
45
100
AcDbXrecord
280
     1
  1
07
  1
07*
  1
*
  1
*
 70
     0
  1
*
  1
*
  0
XRECORD
  5
5D
102
{ACAD_REACTORS
330
45
102
}
330
45
100
AcDbXrecord
280
     1
  1
07給水平面図
  1
00*,02*,0G*
  1
*
  1
*
 70
     0
  1
*
  1
*
  0
XRECORD
  5
5E
102
{ACAD_REACTORS
330
45
102
}
330
45
100
AcDbXrecord
280
     1
  1
0割付平面図
  1
*わ*
  1
*
  1
*
 70
     0
  1
*
  1
*
  0
XRECORD
  5
5F
102
{ACAD_REACTORS
330
45
102
}
330
45
100
AcDbXrecord
280
     1
  1
0潅水平面
  1
*三*
  1
*
  1
*
 70
     0
  1
*
  1
*
  0
XRECORD
  5
60
102
{ACAD_REACTORS
330
45
102
}
330
45
100
AcDbXrecord
280
     1
  1
0計画平面
  1
*け*
  1
*
  1
*
 70
     0
  1
*
  1
*
  0
XRECORD
  5
61
102
{ACAD_REACTORS
330
45
102
}
330
45
100
AcDbXrecord
280
     1
  1
0高木植栽
  1
*こ*
  1
*
  1
*
 70
     0
  1
*
  1
*
  0
XRECORD
  5
62
102
{ACAD_REACTORS
330
45
102
}
330
45
100
AcDbXrecord
280
     1
  1
0施設平面
  1
*し*
  1
*
  1
*
 70
     0
  1
*
  1
*
  0
XRECORD
  5
63
102
{ACAD_REACTORS
330
45
102
}
330
45
100
AcDbXrecord
280
     1
  1
0床内
  1
FI-*
  1
*
  1
*
 70
     0
  1
*
  1
*
  0
XRECORD
  5
64
102
{ACAD_REACTORS
330
45
102
}
330
45
100
AcDbXrecord
280
     1
  1
0床壁
  1
FW*
  1
*
  1
*
 70
     0
  1
*
  1
*
  0
XRECORD
  5
65
102
{ACAD_REACTORS
330
45
102
}
330
45
100
AcDbXrecord
280
     1
  1
0照明配置図
  1
*め*
  1
*
  1
*
 70
     0
  1
*
  1
*
  0
XRECORD
  5
66
102
{ACAD_REACTORS
330
45
102
}
330
45
100
AcDbXrecord
280
     1
  1
0詳細図
  1
*-d
  1
*
  1
*
 70
     0
  1
*
  1
*
  0
XRECORD
  5
67
102
{ACAD_REACTORS
330
45
102
}
330
45
100
AcDbXrecord
280
     1
  1
0植栽基盤
  1
*ど*
  1
*
  1
*
 70
     0
  1
*
  1
*
  0
XRECORD
  5
68
102
{ACAD_REACTORS
330
45
102
}
330
45
100
AcDbXrecord
280
     1
  1
0全体工区区分図
  1
*ぜ*
  1
*
  1
*
 70
     0
  1
*
  1
*
  0
XRECORD
  5
69
102
{ACAD_REACTORS
330
45
102
}
330
45
100
AcDbXrecord
280
     1
  1
0総合図off
  1
*-s
  1
*
  1
*
 70
     0
  1
*
  1
*
  0
XRECORD
  5
6A
102
{ACAD_REACTORS
330
45
102
}
330
45
100
AcDbXrecord
280
     1
  1
0総合図枠
  1
*-2
  1
*
  1
*
 70
     0
  1
*
  1
*
  0
XRECORD
  5
6B
102
{ACAD_REACTORS
330
45
102
}
330
45
100
AcDbXrecord
280
     1
  1
0低木
  1
*て*
  1
*
  1
*
 70
     0
  1
*
  1
*
  0
XRECORD
  5
6C
102
{ACAD_REACTORS
330
45
102
}
330
45
100
AcDbXrecord
280
     1
  1
0排水平面
  1
*は*
  1
*
  1
*
 70
     0
  1
*
  1
*
  0
XRECORD
  5
6D
102
{ACAD_REACTORS
330
45
102
}
330
45
100
AcDbXrecord
280
     1
  1
0平詳枠
  1
*-1
  1
*
  1
*
 70
     0
  1
*
  1
*
  0
XRECORD
  5
6E
102
{ACAD_REACTORS
330
45
102
}
330
45
100
AcDbXrecord
280
     1
  1
0擁壁平面図
  1
*よ*
  1
*
  1
*
 70
     0
  1
*
  1
*
  0
XRECORD
  5
6F
102
{ACAD_REACTORS
330
45
102
}
330
45
100
AcDbXrecord
280
     1
  1
1
  1
*
  1
*
  1
*
 70
     0
  1
*
  1
*
  0
XRECORD
  5
70
102
{ACAD_REACTORS
330
45
102
}
330
45
100
AcDbXrecord
280
     1
  1
10
  1
*
  1
10
  1
*
 70
     0
  1
*
  1
*
  0
XRECORD
  5
71
102
{ACAD_REACTORS
330
45
102
}
330
45
100
AcDbXrecord
280
     1
  1
100
  1
50*
  1
*
  1
*
 70
     0
  1
*
  1
*
  0
XRECORD
  5
72
102
{ACAD_REACTORS
330
45
102
}
330
45
100
AcDbXrecord
280
     1
  1
10植栽平面図
  1
00*,02*,0I*
  1
*
  1
*
 70
     0
  1
*
  1
*
  0
XRECORD
  5
73
102
{ACAD_REACTORS
330
45
102
}
330
45
100
AcDbXrecord
280
     1
  1
11
  1
11*
  1
*
  1
*
 70
     0
  1
*
  1
*
  0
XRECORD
  5
74
102
{ACAD_REACTORS
330
45
102
}
330
45
100
AcDbXrecord
280
     1
  1
1111
  1
*-50
  1
*
  1
*
 70
     0
  1
*
  1
*
  0
XRECORD
  5
75
102
{ACAD_REACTORS
330
45
102
}
330
45
100
AcDbXrecord
280
     1
  1
11寸法図
  1
00*,02*,0K*,03*
  1
*
  1
*
 70
     0
  1
*
  1
*
  0
XRECORD
  5
76
102
{ACAD_REACTORS
330
45
102
}
330
45
100
AcDbXrecord
280
     1
  1
12
  1
*
  1
*12
  1
*
 70
     0
  1
*
  1
*
  0
XRECORD
  5
77
102
{ACAD_REACTORS
330
45
102
}
330
45
100
AcDbXrecord
280
     1
  1
19
  1
*19*
  1
*
  1
*
 70
     0
  1
*
  1
*
  0
XRECORD
  5
78
102
{ACAD_REACTORS
330
45
102
}
330
45
100
AcDbXrecord
280
     1
  1
１Ｆ床伏OFF
  1
-*
  1
*
  1
*
 70
     0
  1
*
  1
*
  0
XRECORD
  5
79
102
{ACAD_REACTORS
330
45
102
}
330
45
100
AcDbXrecord
280
     1
  1
1階
  1
*1階*
  1
*
  1
*
 70
     0
  1
*
  1
*
  0
XRECORD
  5
7A
102
{ACAD_REACTORS
330
45
102
}
330
45
100
AcDbXrecord
280
     1
  1
1床
  1
F-*
  1
*
  1
*
 70
     0
  1
*
  1
*
  0
XRECORD
  5
7B
102
{ACAD_REACTORS
330
45
102
}
330
45
100
AcDbXrecord
280
     1
  1
1芯
  1
1*
  1
*
  1
*
 70
     0
  1
*
  1
*
  0
XRECORD
  5
7C
102
{ACAD_REACTORS
330
45
102
}
330
45
100
AcDbXrecord
280
     1
  1
1芯線
  1
1*
  1
*
  1
*
 70
     0
  1
*
  1
*
  0
XRECORD
  5
7D
102
{ACAD_REACTORS
330
45
102
}
330
45
100
AcDbXrecord
280
     1
  1
20
  1
*20
  1
*
  1
*
 70
     0
  1
*
  1
*
  0
XRECORD
  5
7E
102
{ACAD_REACTORS
330
45
102
}
330
45
100
AcDbXrecord
280
     1
  1
21
  1
*
  1
21
  1
*
 70
     0
  1
*
  1
*
  0
XRECORD
  5
7F
102
{ACAD_REACTORS
330
45
102
}
330
45
100
AcDbXrecord
280
     1
  1
250
  1
*250*
  1
*
  1
*
 70
     0
  1
*
  1
*
  0
XRECORD
  5
80
102
{ACAD_REACTORS
330
45
102
}
330
45
100
AcDbXrecord
280
     1
  1
2fmiage
  1
*
  1
*
  1
*
 70
     1
  1
*
  1
*
  0
XRECORD
  5
81
102
{ACAD_REACTORS
330
45
102
}
330
45
100
AcDbXrecord
280
     1
  1
2躯体
  1
2*
  1
*
  1
*
 70
     0
  1
*
  1
*
  0
XRECORD
  5
82
102
{ACAD_REACTORS
330
45
102
}
330
45
100
AcDbXrecord
280
     1
  1
2断面
  1
2*
  1
*
  1
*
 70
     0
  1
*
  1
*
  0
XRECORD
  5
83
102
{ACAD_REACTORS
330
45
102
}
330
45
100
AcDbXrecord
280
     1
  1
2壁
  1
W-*
  1
*
  1
*
 70
     0
  1
*
  1
*
  0
XRECORD
  5
84
102
{ACAD_REACTORS
330
45
102
}
330
45
100
AcDbXrecord
280
     1
  1
300
  1
*300*
  1
*
  1
*
 70
     0
  1
*
  1
*
  0
XRECORD
  5
85
102
{ACAD_REACTORS
330
45
102
}
330
45
100
AcDbXrecord
280
     1
  1
32
  1
*
  1
32
  1
*
 70
     0
  1
*
  1
*
  0
XRECORD
  5
86
102
{ACAD_REACTORS
330
45
102
}
330
45
100
AcDbXrecord
280
     1
  1
333
  1
*
  1
*
  1
*
 70
    12
  1
*
  1
*
  0
XRECORD
  5
87
102
{ACAD_REACTORS
330
45
102
}
330
45
100
AcDbXrecord
280
     1
  1
37
  1
*37
  1
*
  1
*
 70
     0
  1
*
  1
*
  0
XRECORD
  5
88
102
{ACAD_REACTORS
330
45
102
}
330
45
100
AcDbXrecord
280
     1
  1
3D
  1
3D*
  1
*
  1
*
 70
     0
  1
*
  1
*
  0
XRECORD
  5
89
102
{ACAD_REACTORS
330
45
102
}
330
45
100
AcDbXrecord
280
     1
  1
3開口
  1
3*
  1
*
  1
*
 70
     0
  1
*
  1
*
  0
XRECORD
  5
8A
102
{ACAD_REACTORS
330
45
102
}
330
45
100
AcDbXrecord
280
     1
  1
3見掛り
  1
3*
  1
*
  1
*
 70
     0
  1
*
  1
*
  0
XRECORD
  5
8B
102
{ACAD_REACTORS
330
45
102
}
330
45
100
AcDbXrecord
280
     1
  1
3天井内
  1
CI-*
  1
*
  1
*
 70
     0
  1
*
  1
*
  0
XRECORD
  5
8C
102
{ACAD_REACTORS
330
45
102
}
330
45
100
AcDbXrecord
280
     1
  1
41
  1
41
  1
*
  1
*
 70
     1
  1
*
  1
*
  0
XRECORD
  5
8D
102
{ACAD_REACTORS
330
45
102
}
330
45
100
AcDbXrecord
280
     1
  1
4仕上げ
  1
4*
  1
*
  1
*
 70
     0
  1
*
  1
*
  0
XRECORD
  5
8E
102
{ACAD_REACTORS
330
45
102
}
330
45
100
AcDbXrecord
280
     1
  1
4天井
  1
C-*
  1
*
  1
*
 70
     0
  1
*
  1
*
  0
XRECORD
  5
8F
102
{ACAD_REACTORS
330
45
102
}
330
45
100
AcDbXrecord
280
     1
  1
5
  1
*5
  1
*
  1
*
 70
     1
  1
*
  1
*
  0
XRECORD
  5
90
102
{ACAD_REACTORS
330
45
102
}
330
45
100
AcDbXrecord
280
     1
  1
50
  1
*-50
  1
*
  1
*
 70
     0
  1
*
  1
*
  0
XRECORD
  5
91
102
{ACAD_REACTORS
330
45
102
}
330
45
100
AcDbXrecord
280
     1
  1
50off
  1
50*
  1
*
  1
*
 70
     0
  1
*
  1
*
  0
XRECORD
  5
92
102
{ACAD_REACTORS
330
45
102
}
330
45
100
AcDbXrecord
280
     1
  1
51-52
  1
5*
  1
*
  1
*
 70
     0
  1
*
  1
*
  0
XRECORD
  5
93
102
{ACAD_REACTORS
330
45
102
}
330
45
100
AcDbXrecord
280
     1
  1
555
  1
*
  1
*
  1
*
 70
     1
  1
*
  1
*
  0
XRECORD
  5
94
102
{ACAD_REACTORS
330
45
102
}
330
45
100
AcDbXrecord
280
     1
  1
5寸法
  1
5*
  1
*
  1
*
 70
     0
  1
*
  1
*
  0
XRECORD
  5
95
102
{ACAD_REACTORS
330
45
102
}
330
45
100
AcDbXrecord
280
     1
  1
5文字
  1
*TXT*
  1
*
  1
*
 70
     0
  1
*
  1
*
  0
XRECORD
  5
96
102
{ACAD_REACTORS
330
45
102
}
330
45
100
AcDbXrecord
280
     1
  1
6
  1
*
  1
6
  1
*
 70
     0
  1
*
  1
*
  0
XRECORD
  5
97
102
{ACAD_REACTORS
330
45
102
}
330
45
100
AcDbXrecord
280
     1
  1
66-躯体図
  1
0,Defpoints,HOJO,雲マーク,000*,010*,020*,1*,400*,470*,520*,570*,08*
  1
*
  1
*
 70
     0
  1
*
  1
*
  0
XRECORD
  5
98
102
{ACAD_REACTORS
330
45
102
}
330
45
100
AcDbXrecord
280
     1
  1
66躯体図
  1
0,Defpoints,HOJO,雲マーク,000*,010*,020*,1*,400*,470*,520*,570*,08*,6*
  1
*
  1
*
 70
     0
  1
*
  1
*
  0
XRECORD
  5
99
102
{ACAD_REACTORS
330
45
102
}
330
45
100
AcDbXrecord
280
     1
  1
6記号
  1
6*
  1
*
  1
*
 70
     0
  1
*
  1
*
  0
XRECORD
  5
9A
102
{ACAD_REACTORS
330
45
102
}
330
45
100
AcDbXrecord
280
     1
  1
6文字
  1
6*
  1
*
  1
*
 70
     0
  1
*
  1
*
  0
XRECORD
  5
9B
102
{ACAD_REACTORS
330
45
102
}
330
45
100
AcDbXrecord
280
     1
  1
6保留
  1
*_a
  1
*
  1
*
 70
     0
  1
*
  1
*
  0
XRECORD
  5
9C
102
{ACAD_REACTORS
330
45
102
}
330
45
100
AcDbXrecord
280
     1
  1
767
  1
*
  1
*
  1
*
 70
     0
  1
*
  1
*
  0
XRECORD
  5
9D
102
{ACAD_REACTORS
330
45
102
}
330
45
100
AcDbXrecord
280
     1
  1
767SE13-0...$
  1
*
  1
*
  1
*
 70
     0
  1
*
  1
*
  0
XRECORD
  5
9E
102
{ACAD_REACTORS
330
45
102
}
330
45
100
AcDbXrecord
280
     1
  1
767SE13-07-99$0$
  1
*
  1
*
  1
*
 70
     0
  1
*
  1
*
  0
XRECORD
  5
9F
102
{ACAD_REACTORS
330
45
102
}
330
45
100
AcDbXrecord
280
     1
  1
7記号
  1
7*
  1
*
  1
*
 70
     0
  1
*
  1
*
  0
XRECORD
  5
A0
102
{ACAD_REACTORS
330
45
102
}
330
45
100
AcDbXrecord
280
     1
  1
8
  1
*
  1
8
  1
*
 70
    12
  1
*
  1
*
  0
XRECORD
  5
A1
102
{ACAD_REACTORS
330
45
102
}
330
45
100
AcDbXrecord
280
     1
  1
8寸法
  1
8*
  1
*
  1
*
 70
     0
  1
*
  1
*
  0
XRECORD
  5
A2
102
{ACAD_REACTORS
330
45
102
}
330
45
100
AcDbXrecord
280
     1
  1
8設備
  1
8*
  1
*
  1
*
 70
     0
  1
*
  1
*
  0
XRECORD
  5
A3
102
{ACAD_REACTORS
330
45
102
}
330
45
100
AcDbXrecord
280
     1
  1
9文字
  1
9*
  1
*
  1
*
 70
     0
  1
*
  1
*
  0
XRECORD
  5
A4
102
{ACAD_REACTORS
330
45
102
}
330
45
100
AcDbXrecord
280
     1
  1
9目地
  1
9*
  1
*
  1
*
 70
     0
  1
*
  1
*
  0
XRECORD
  5
A5
102
{ACAD_REACTORS
330
45
102
}
330
45
100
AcDbXrecord
280
     1
  1
A
  1
A*
  1
*
  1
*
 70
     0
  1
*
  1
*
  0
XRECORD
  5
A6
102
{ACAD_REACTORS
330
45
102
}
330
45
100
AcDbXrecord
280
     1
  1
A-
  1
A-*
  1
*
  1
*
 70
     0
  1
*
  1
*
  0
XRECORD
  5
A7
102
{ACAD_REACTORS
330
45
102
}
330
45
100
AcDbXrecord
280
     1
  1
A(枠･表)を表示
  1
A*
  1
*
  1
*
 70
     0
  1
*
  1
*
  0
XRECORD
  5
A8
102
{ACAD_REACTORS
330
45
102
}
330
45
100
AcDbXrecord
280
     1
  1
A01
  1
*A01*
  1
*
  1
*
 70
     0
  1
*
  1
*
  0
XRECORD
  5
A9
102
{ACAD_REACTORS
330
45
102
}
330
45
100
AcDbXrecord
280
     1
  1
A1.DEMO-KEY NOTE
  1
*-D-*
  1
*
  1
*
 70
     0
  1
*
  1
*
  0
XRECORD
  5
AA
102
{ACAD_REACTORS
330
45
102
}
330
45
100
AcDbXrecord
280
     1
  1
A2. CONS-KEY NOTE
  1
*-C-*
  1
*
  1
*
 70
     0
  1
*
  1
*
  0
XRECORD
  5
AB
102
{ACAD_REACTORS
330
45
102
}
330
45
100
AcDbXrecord
280
     1
  1
A21
  1
*A21*
  1
*
  1
*
 70
     0
  1
*
  1
*
  0
XRECORD
  5
AC
102
{ACAD_REACTORS
330
45
102
}
330
45
100
AcDbXrecord
280
     1
  1
A3
  1
*A3
  1
*
  1
*
 70
     0
  1
*
  1
*
  0
XRECORD
  5
AD
102
{ACAD_REACTORS
330
45
102
}
330
45
100
AcDbXrecord
280
     1
  1
A3. RCP-LAYER
  1
*R-SCH*
  1
*
  1
*
 70
     0
  1
*
  1
*
  0
XRECORD
  5
AE
102
{ACAD_REACTORS
330
45
102
}
330
45
100
AcDbXrecord
280
     1
  1
A3D. RCP_DEMO-KEY NOTE
  1
*-RD-*
  1
*
  1
*
 70
     0
  1
*
  1
*
  0
XRECORD
  5
AF
102
{ACAD_REACTORS
330
45
102
}
330
45
100
AcDbXrecord
280
     1
  1
A4. P&T- KEY NOTE
  1
*T-SCH*
  1
*
  1
*
 70
     0
  1
*
  1
*
  0
XRECORD
  5
B0
102
{ACAD_REACTORS
330
45
102
}
330
45
100
AcDbXrecord
280
     1
  1
A4D. EL_DEMO-KEY NOTE
  1
*-ED-*
  1
*
  1
*
 70
     0
  1
*
  1
*
  0
XRECORD
  5
B1
102
{ACAD_REACTORS
330
45
102
}
330
45
100
AcDbXrecord
280
     1
  1
A5. FINISH-KEY NOTE
  1
*-N-*
  1
*
  1
*
 70
     0
  1
*
  1
*
  0
XRECORD
  5
B2
102
{ACAD_REACTORS
330
45
102
}
330
45
100
AcDbXrecord
280
     1
  1
A6. FURN-KEY NOTE
  1
*-F-*
  1
*
  1
*
 70
     0
  1
*
  1
*
  0
XRECORD
  5
B3
102
{ACAD_REACTORS
330
45
102
}
330
45
100
AcDbXrecord
280
     1
  1
aa
  1
*aa*
  1
*
  1
*
 70
     0
  1
*
  1
*
  0
XRECORD
  5
B4
102
{ACAD_REACTORS
330
45
102
}
330
45
100
AcDbXrecord
280
     1
  1
aaa
  1
*
  1
*
  1
*
 70
     0
  1
*
  1
*
  0
XRECORD
  5
B5
102
{ACAD_REACTORS
330
45
102
}
330
45
100
AcDbXrecord
280
     1
  1
AB棟
  1
ＡＢ棟*
  1
*
  1
*
 70
     0
  1
*
  1
*
  0
XRECORD
  5
B6
102
{ACAD_REACTORS
330
45
102
}
330
45
100
AcDbXrecord
280
     1
  1
ＡＢ棟
  1
ＡＢ棟*
  1
*
  1
*
 70
     0
  1
*
  1
*
  0
XRECORD
  5
B7
102
{ACAD_REACTORS
330
45
102
}
330
45
100
AcDbXrecord
280
     1
  1
ACTIVE
  1
C.*
  1
*
  1
*
 70
     0
  1
*
  1
*
  0
XRECORD
  5
B8
102
{ACAD_REACTORS
330
45
102
}
330
45
100
AcDbXrecord
280
     1
  1
ACTIVE2
  1
B-*
  1
*
  1
*
 70
     0
  1
*
  1
*
  0
XRECORD
  5
B9
102
{ACAD_REACTORS
330
45
102
}
330
45
100
AcDbXrecord
280
     1
  1
ALC
  1
*ALC
  1
*
  1
*
 70
     0
  1
*
  1
*
  0
XRECORD
  5
BA
102
{ACAD_REACTORS
330
45
102
}
330
45
100
AcDbXrecord
280
     1
  1
ALL
  1
*
  1
*
  1
*
 70
     3
  1
*
  1
*
  0
XRECORD
  5
BB
102
{ACAD_REACTORS
330
45
102
}
330
45
100
AcDbXrecord
280
     1
  1
all選択
  1
*
  1
*
  1
*
 70
     0
  1
*
  1
*
  0
XRECORD
  5
BC
102
{ACAD_REACTORS
330
45
102
}
330
45
100
AcDbXrecord
280
     1
  1
AMENAGEMENT
  1
*
  1
*
  1
*
 70
    13
  1
*
  1
*
  0
XRECORD
  5
BD
102
{ACAD_REACTORS
330
45
102
}
330
45
100
AcDbXrecord
280
     1
  1
AQ
  1
AQ*
  1
*
  1
*
 70
     0
  1
*
  1
*
  0
XRECORD
  5
BE
102
{ACAD_REACTORS
330
45
102
}
330
45
100
AcDbXrecord
280
     1
  1
ARBOL
  1
*ARBOL*
  1
*
  1
*
 70
     0
  1
*
  1
*
  0
XRECORD
  5
BF
102
{ACAD_REACTORS
330
45
102
}
330
45
100
AcDbXrecord
280
     1
  1
AREA
  1
*AREA*
  1
*
  1
*
 70
     0
  1
*
  1
*
  0
XRECORD
  5
C0
102
{ACAD_REACTORS
330
45
102
}
330
45
100
AcDbXrecord
280
     1
  1
AREA-SG
  1
*6AREA-SG
  1
6
  1
*
 70
     0
  1
*
  1
*
  0
XRECORD
  5
C1
102
{ACAD_REACTORS
330
45
102
}
330
45
100
AcDbXrecord
280
     1
  1
AS1
  1
*AS1
  1
*
  1
*
 70
     0
  1
*
  1
*
  0
XRECORD
  5
C2
102
{ACAD_REACTORS
330
45
102
}
330
45
100
AcDbXrecord
280
     1
  1
aハッチング
  1
a*
  1
*
  1
*
 70
     0
  1
*
  1
*
  0
XRECORD
  5
C3
102
{ACAD_REACTORS
330
45
102
}
330
45
100
AcDbXrecord
280
     1
  1
A空調
  1
*
  1
*
  1
*
 70
     0
  1
*
  1
KUCYOU
  0
XRECORD
  5
C4
102
{ACAD_REACTORS
330
45
102
}
330
45
100
AcDbXrecord
280
     1
  1
B
  1
B*
  1
*
  1
*
 70
     0
  1
*
  1
*
  0
XRECORD
  5
C5
102
{ACAD_REACTORS
330
45
102
}
330
45
100
AcDbXrecord
280
     1
  1
B(基準)を表示
  1
B*
  1
*
  1
*
 70
     0
  1
*
  1
*
  0
XRECORD
  5
C6
102
{ACAD_REACTORS
330
45
102
}
330
45
100
AcDbXrecord
280
     1
  1
B2
  1
B2*
  1
*
  1
*
 70
     1
  1
*
  1
*
  0
XRECORD
  5
C7
102
{ACAD_REACTORS
330
45
102
}
330
45
100
AcDbXrecord
280
     1
  1
B3
  1
B3*
  1
*
  1
*
 70
     0
  1
*
  1
*
  0
XRECORD
  5
C8
102
{ACAD_REACTORS
330
45
102
}
330
45
100
AcDbXrecord
280
     1
  1
BAL
  1
*BAL
  1
*
  1
*
 70
     0
  1
*
  1
*
  0
XRECORD
  5
C9
102
{ACAD_REACTORS
330
45
102
}
330
45
100
AcDbXrecord
280
     1
  1
baru
  1
*51A
  1
*
  1
*
 70
     0
  1
*
  1
*
  0
XRECORD
  5
CA
102
{ACAD_REACTORS
330
45
102
}
330
45
100
AcDbXrecord
280
     1
  1
baru2
  1
*AS1A
  1
*
  1
*
 70
     0
  1
*
  1
*
  0
XRECORD
  5
CB
102
{ACAD_REACTORS
330
45
102
}
330
45
100
AcDbXrecord
280
     1
  1
BASE
  1
*I4BASE
  1
*
  1
*
 70
     0
  1
*
  1
*
  0
XRECORD
  5
CC
102
{ACAD_REACTORS
330
45
102
}
330
45
100
AcDbXrecord
280
     1
  1
bb
  1
rogarpissu,block
  1
*
  1
*
 70
     0
  1
*
  1
*
  0
XRECORD
  5
CD
102
{ACAD_REACTORS
330
45
102
}
330
45
100
AcDbXrecord
280
     1
  1
bbbb
  1
prova
  1
*
  1
*
 70
    55
  1
*
  1
*
  0
XRECORD
  5
CE
102
{ACAD_REACTORS
330
45
102
}
330
45
100
AcDbXrecord
280
     1
  1
beam
  1
*beam*
  1
*
  1
*
 70
     0
  1
*
  1
*
  0
XRECORD
  5
CF
102
{ACAD_REACTORS
330
45
102
}
330
45
100
AcDbXrecord
280
     1
  1
blocchi
  1
mqa*
  1
*
  1
*
 70
     0
  1
*
  1
*
  0
XRECORD
  5
D0
102
{ACAD_REACTORS
330
45
102
}
330
45
100
AcDbXrecord
280
     1
  1
blue
  1
*
  1
blue
  1
*
 70
     0
  1
*
  1
*
  0
XRECORD
  5
D1
102
{ACAD_REACTORS
330
45
102
}
330
45
100
AcDbXrecord
280
     1
  1
BSM
  1
*BSM*
  1
*
  1
*
 70
     0
  1
*
  1
*
  0
XRECORD
  5
D2
102
{ACAD_REACTORS
330
45
102
}
330
45
100
AcDbXrecord
280
     1
  1
b階段
  1
b*
  1
*
  1
*
 70
     0
  1
*
  1
*
  0
XRECORD
  5
D3
102
{ACAD_REACTORS
330
45
102
}
330
45
100
AcDbXrecord
280
     1
  1
B電気
  1
*
  1
*
  1
*
 70
     0
  1
*
  1
DENKI
  0
XRECORD
  5
D4
102
{ACAD_REACTORS
330
45
102
}
330
45
100
AcDbXrecord
280
     1
  1
c
  1
c*
  1
*
  1
*
 70
    61
  1
*
  1
*
  0
XRECORD
  5
D5
102
{ACAD_REACTORS
330
45
102
}
330
45
100
AcDbXrecord
280
     1
  1
c-block
  1
c-*
  1
*
  1
*
 70
     0
  1
*
  1
*
  0
XRECORD
  5
D6
102
{ACAD_REACTORS
330
45
102
}
330
45
100
AcDbXrecord
280
     1
  1
c-block-2
  1
c-*
  1
*
  1
*
 70
  1024
  1
*
  1
*
  0
XRECORD
  5
D7
102
{ACAD_REACTORS
330
45
102
}
330
45
100
AcDbXrecord
280
     1
  1
C(寸･文･記)を表示
  1
C*
  1
*
  1
*
 70
     0
  1
*
  1
*
  0
XRECORD
  5
D8
102
{ACAD_REACTORS
330
45
102
}
330
45
100
AcDbXrecord
280
     1
  1
cajetin
  1
caj*
  1
*
  1
*
 70
     0
  1
*
  1
*
  0
XRECORD
  5
D9
102
{ACAD_REACTORS
330
45
102
}
330
45
100
AcDbXrecord
280
     1
  1
cc
  1
*
  1
*
  1
*
 70
     0
  1
*
  1
*
  0
XRECORD
  5
DA
102
{ACAD_REACTORS
330
45
102
}
330
45
100
AcDbXrecord
280
     1
  1
CD06
  1
CD06*
  1
*
  1
*
 70
     0
  1
*
  1
*
  0
XRECORD
  5
DB
102
{ACAD_REACTORS
330
45
102
}
330
45
100
AcDbXrecord
280
     1
  1
ＣＤ棟
  1
T15-*
  1
*
  1
*
 70
     0
  1
*
  1
*
  0
XRECORD
  5
DC
102
{ACAD_REACTORS
330
45
102
}
330
45
100
AcDbXrecord
280
     1
  1
ceiling
  1
*ceiling*
  1
*
  1
*
 70
     0
  1
*
  1
*
  0
XRECORD
  5
DD
102
{ACAD_REACTORS
330
45
102
}
330
45
100
AcDbXrecord
280
     1
  1
CEILINGS XREF
  1
*CE-SUSPENDED-CEILINGS
  1
*
  1
*
 70
     0
  1
*
  1
*
  0
XRECORD
  5
DE
102
{ACAD_REACTORS
330
45
102
}
330
45
100
AcDbXrecord
280
     1
  1
CEL
  1
*
  1
*
  1
*
 70
     0
  1
*
  1
*
  0
XRECORD
  5
DF
102
{ACAD_REACTORS
330
45
102
}
330
45
100
AcDbXrecord
280
     1
  1
che
  1
che*
  1
*
  1
*
 70
     0
  1
*
  1
*
  0
XRECORD
  5
E0
102
{ACAD_REACTORS
330
45
102
}
330
45
100
AcDbXrecord
280
     1
  1
chika
  1
2躯体構造体点線
  1
211
  1
*
 70
     0
  1
*
  1
*
  0
XRECORD
  5
E1
102
{ACAD_REACTORS
330
45
102
}
330
45
100
AcDbXrecord
280
     1
  1
CLG
  1
*CLG*
  1
*
  1
*
 70
     0
  1
*
  1
*
  0
XRECORD
  5
E2
102
{ACAD_REACTORS
330
45
102
}
330
45
100
AcDbXrecord
280
     1
  1
COL
  1
*COL*
  1
*
  1
*
 70
     0
  1
*
  1
*
  0
XRECORD
  5
E3
102
{ACAD_REACTORS
330
45
102
}
330
45
100
AcDbXrecord
280
     1
  1
cold beam
  1
*cold*
  1
*
  1
*
 70
     0
  1
*
  1
*
  0
XRECORD
  5
E4
102
{ACAD_REACTORS
330
45
102
}
330
45
100
AcDbXrecord
280
     1
  1
colu
  1
*colu*
  1
*
  1
*
 70
     0
  1
*
  1
*
  0
XRECORD
  5
E5
102
{ACAD_REACTORS
330
45
102
}
330
45
100
AcDbXrecord
280
     1
  1
com
  1
com*
  1
*
  1
*
 70
     0
  1
*
  1
*
  0
XRECORD
  5
E6
102
{ACAD_REACTORS
330
45
102
}
330
45
100
AcDbXrecord
280
     1
  1
con
  1
c-*
  1
*
  1
*
 70
     0
  1
*
  1
*
  0
XRECORD
  5
E7
102
{ACAD_REACTORS
330
45
102
}
330
45
100
AcDbXrecord
280
     1
  1
CRG
  1
tca-6f|*CRG*
  1
*
  1
*
 70
     0
  1
*
  1
*
  0
XRECORD
  5
E8
102
{ACAD_REACTORS
330
45
102
}
330
45
100
AcDbXrecord
280
     1
  1
cyan
  1
*
  1
cyan
  1
*
 70
     0
  1
*
  1
*
  0
XRECORD
  5
E9
102
{ACAD_REACTORS
330
45
102
}
330
45
100
AcDbXrecord
280
     1
  1
C衛生
  1
*
  1
*
  1
*
 70
     0
  1
*
  1
EISEI
  0
XRECORD
  5
EA
102
{ACAD_REACTORS
330
45
102
}
330
45
100
AcDbXrecord
280
     1
  1
C街区関連
  1
*
  1
*
  1
*
 70
  1024
  1
*
  1
*
  0
XRECORD
  5
EB
102
{ACAD_REACTORS
330
45
102
}
330
45
100
AcDbXrecord
280
     1
  1
c雑金物
  1
c*
  1
*
  1
*
 70
     0
  1
*
  1
*
  0
XRECORD
  5
EC
102
{ACAD_REACTORS
330
45
102
}
330
45
100
AcDbXrecord
280
     1
  1
C打計画図
  1
001*,002*,003*,004*,005*,007*,012*,015*,016*,017*,018*,019*,020*,021*,049*,050*,051*,052*,053*,054*,055*,056*,057*,058*,059*,060*,061*,062*,063*,064*,065*,066*,067*,068*,069*,070*,071*,072*,073*,074*,075*
  1
*
  1
*
 70
     0
  1
*
  1
*
  0
XRECORD
  5
ED
102
{ACAD_REACTORS
330
45
102
}
330
45
100
AcDbXrecord
280
     1
  1
D
  1
D*
  1
*
  1
*
 70
     0
  1
*
  1
*
  0
XRECORD
  5
EE
102
{ACAD_REACTORS
330
45
102
}
330
45
100
AcDbXrecord
280
     1
  1
D(表現補助)を表示
  1
D*
  1
*
  1
*
 70
     0
  1
*
  1
*
  0
XRECORD
  5
EF
102
{ACAD_REACTORS
330
45
102
}
330
45
100
AcDbXrecord
280
     1
  1
Ｄ・墓地　施設平面
  1
*も*
  1
*
  1
*
 70
     0
  1
*
  1
*
  0
XRECORD
  5
F0
102
{ACAD_REACTORS
330
45
102
}
330
45
100
AcDbXrecord
280
     1
  1
D16
  1
D16*
  1
*
  1
*
 70
     0
  1
*
  1
*
  0
XRECORD
  5
F1
102
{ACAD_REACTORS
330
45
102
}
330
45
100
AcDbXrecord
280
     1
  1
DASHED
  1
*
  1
*
  1
DASHED
 70
     0
  1
*
  1
*
  0
XRECORD
  5
F2
102
{ACAD_REACTORS
330
45
102
}
330
45
100
AcDbXrecord
280
     1
  1
DASHED2
  1
*
  1
*
  1
DASHED
 70
     0
  1
*
  1
*
  0
XRECORD
  5
F3
102
{ACAD_REACTORS
330
45
102
}
330
45
100
AcDbXrecord
280
     1
  1
DEMO
  1
*DEMO*
  1
*
  1
*
 70
     0
  1
*
  1
*
  0
XRECORD
  5
F4
102
{ACAD_REACTORS
330
45
102
}
330
45
100
AcDbXrecord
280
     1
  1
DEMOLITION
  1
*DEMO*
  1
*
  1
*
 70
     0
  1
*
  1
*
  0
XRECORD
  5
F5
102
{ACAD_REACTORS
330
45
102
}
330
45
100
AcDbXrecord
280
     1
  1
detail
  1
d*
  1
*
  1
*
 70
     0
  1
*
  1
*
  0
XRECORD
  5
F6
102
{ACAD_REACTORS
330
45
102
}
330
45
100
AcDbXrecord
280
     1
  1
details
  1
det-*
  1
*
  1
*
 70
     0
  1
*
  1
*
  0
XRECORD
  5
F7
102
{ACAD_REACTORS
330
45
102
}
330
45
100
AcDbXrecord
280
     1
  1
DHED
  1
*DHED*
  1
*
  1
*
 70
     0
  1
*
  1
*
  0
XRECORD
  5
F8
102
{ACAD_REACTORS
330
45
102
}
330
45
100
AcDbXrecord
280
     1
  1
Dim
  1
*-Dim*
  1
*
  1
*
 70
     0
  1
*
  1
*
  0
XRECORD
  5
F9
102
{ACAD_REACTORS
330
45
102
}
330
45
100
AcDbXrecord
280
     1
  1
disegno
  1
ben*
  1
*
  1
*
 70
     0
  1
*
  1
*
  0
XRECORD
  5
FA
102
{ACAD_REACTORS
330
45
102
}
330
45
100
AcDbXrecord
280
     1
  1
DOORS
  1
*
  1
*
  1
*
 70
     0
  1
*
  1
*
  0
XRECORD
  5
FB
102
{ACAD_REACTORS
330
45
102
}
330
45
100
AcDbXrecord
280
     1
  1
DR
  1
DR*
  1
*
  1
*
 70
     0
  1
*
  1
*
  0
XRECORD
  5
FC
102
{ACAD_REACTORS
330
45
102
}
330
45
100
AcDbXrecord
280
     1
  1
DT
  1
DT*
  1
*
  1
*
 70
     0
  1
*
  1
*
  0
XRECORD
  5
FD
102
{ACAD_REACTORS
330
45
102
}
330
45
100
AcDbXrecord
280
     1
  1
d外構
  1
d*
  1
*
  1
*
 70
     0
  1
*
  1
*
  0
XRECORD
  5
FE
102
{ACAD_REACTORS
330
45
102
}
330
45
100
AcDbXrecord
280
     1
  1
Ｄ街区低木
  1
*て*
  1
*
  1
*
 70
     0
  1
*
  1
*
  0
XRECORD
  5
FF
102
{ACAD_REACTORS
330
45
102
}
330
45
100
AcDbXrecord
280
     1
  1
D割付平面
  1
*わ*
  1
*
  1
*
 70
     0
  1
*
  1
*
  0
XRECORD
  5
100
102
{ACAD_REACTORS
330
45
102
}
330
45
100
AcDbXrecord
280
     1
  1
Ｄ給水設備
  1
*ゆ*
  1
*
  1
*
 70
     0
  1
*
  1
*
  0
XRECORD
  5
101
102
{ACAD_REACTORS
330
45
102
}
330
45
100
AcDbXrecord
280
     1
  1
Ｄ計画高平面
  1
*さ*
  1
*
  1
*
 70
     0
  1
*
  1
*
  0
XRECORD
  5
102
102
{ACAD_REACTORS
330
45
102
}
330
45
100
AcDbXrecord
280
     1
  1
Ｄ計画平面
  1
*け*
  1
*
  1
*
 70
     0
  1
*
  1
*
  0
XRECORD
  5
103
102
{ACAD_REACTORS
330
45
102
}
330
45
100
AcDbXrecord
280
     1
  1
Ｄ工事区分
  1
*ぶ*
  1
*
  1
*
 70
     0
  1
*
  1
*
  0
XRECORD
  5
104
102
{ACAD_REACTORS
330
45
102
}
330
45
100
AcDbXrecord
280
     1
  1
Ｄ高木植栽
  1
*こ*
  1
*
  1
*
 70
     0
  1
*
  1
*
  0
XRECORD
  5
105
102
{ACAD_REACTORS
330
45
102
}
330
45
100
AcDbXrecord
280
     1
  1
Ｄ施設平面
  1
*し*
  1
*
  1
*
 70
     0
  1
*
  1
*
  0
XRECORD
  5
106
102
{ACAD_REACTORS
330
45
102
}
330
45
100
AcDbXrecord
280
     1
  1
Ｄ照明設備
  1
*め*
  1
*
  1
*
 70
     0
  1
*
  1
*
  0
XRECORD
  5
107
102
{ACAD_REACTORS
330
45
102
}
330
45
100
AcDbXrecord
280
     1
  1
Ｄ低木
  1
*て*
  1
*
  1
*
 70
     0
  1
*
  1
*
  0
XRECORD
  5
108
102
{ACAD_REACTORS
330
45
102
}
330
45
100
AcDbXrecord
280
     1
  1
Ｄ電気設備
  1
*で*
  1
*
  1
*
 70
     0
  1
*
  1
*
  0
XRECORD
  5
109
102
{ACAD_REACTORS
330
45
102
}
330
45
100
AcDbXrecord
280
     1
  1
Ｄ土壌改良
  1
*ど*
  1
*
  1
*
 70
     0
  1
*
  1
*
  0
XRECORD
  5
10A
102
{ACAD_REACTORS
330
45
102
}
330
45
100
AcDbXrecord
280
     1
  1
Ｄ排水平面
  1
*は*
  1
*
  1
*
 70
     0
  1
*
  1
*
  0
XRECORD
  5
10B
102
{ACAD_REACTORS
330
45
102
}
330
45
100
AcDbXrecord
280
     1
  1
D舗装平面
  1
*ほ*
  1
*
  1
*
 70
     0
  1
*
  1
*
  0
XRECORD
  5
10C
102
{ACAD_REACTORS
330
45
102
}
330
45
100
AcDbXrecord
280
     1
  1
Ｄ墓地施設平面
  1
*も*
  1
*
  1
*
 70
     0
  1
*
  1
*
  0
XRECORD
  5
10D
102
{ACAD_REACTORS
330
45
102
}
330
45
100
AcDbXrecord
280
     1
  1
D墓地排水
  1
*は*
  1
*
  1
*
 70
     0
  1
*
  1
*
  0
XRECORD
  5
10E
102
{ACAD_REACTORS
330
45
102
}
330
45
100
AcDbXrecord
280
     1
  1
E
  1
*E-*
  1
*
  1
*
 70
     0
  1
*
  1
*
  0
XRECORD
  5
10F
102
{ACAD_REACTORS
330
45
102
}
330
45
100
AcDbXrecord
280
     1
  1
E(点線系)を表示
  1
E*
  1
*
  1
*
 70
     0
  1
*
  1
*
  0
XRECORD
  5
110
102
{ACAD_REACTORS
330
45
102
}
330
45
100
AcDbXrecord
280
     1
  1
EEEE
  1
*
  1
*
  1
*
 70
  1804
  1
*
  1
*
  0
XRECORD
  5
111
102
{ACAD_REACTORS
330
45
102
}
330
45
100
AcDbXrecord
280
     1
  1
EISEI
  1
*4EISEI
  1
4
  1
*
 70
     0
  1
*
  1
*
  0
XRECORD
  5
429
102
{ACAD_REACTORS
330
45
102
}
330
45
100
AcDbXrecord
280
     1
  1
ele
  1
ele*
  1
*
  1
*
 70
     0
  1
*
  1
*
  0
XRECORD
  5
112
102
{ACAD_REACTORS
330
45
102
}
330
45
100
AcDbXrecord
280
     1
  1
elec
  1
01_elec-tgbt
  1
*
  1
*
 70
     0
  1
*
  1
*
  0
XRECORD
  5
113
102
{ACAD_REACTORS
330
45
102
}
330
45
100
AcDbXrecord
280
     1
  1
ERAS1F
  1
*2ERAS1F
  1
*
  1
*
 70
     0
  1
*
  1
*
  0
XRECORD
  5
114
102
{ACAD_REACTORS
330
45
102
}
330
45
100
AcDbXrecord
280
     1
  1
existing
  1
afl-* 
  1
*
  1
*
 70
     0
  1
*
  1
*
  0
XRECORD
  5
115
102
{ACAD_REACTORS
330
45
102
}
330
45
100
AcDbXrecord
280
     1
  1
Exit
  1
*exit*
  1
*
  1
*
 70
     0
  1
*
  1
*
  0
XRECORD
  5
116
102
{ACAD_REACTORS
330
45
102
}
330
45
100
AcDbXrecord
280
     1
  1
F
  1
F*
  1
*
  1
*
 70
     0
  1
*
  1
*
  0
XRECORD
  5
117
102
{ACAD_REACTORS
330
45
102
}
330
45
100
AcDbXrecord
280
     1
  1
F(断面)を表示
  1
F*
  1
*
  1
*
 70
     0
  1
*
  1
*
  0
XRECORD
  5
118
102
{ACAD_REACTORS
330
45
102
}
330
45
100
AcDbXrecord
280
     1
  1
F1
  1
*
  1
*
  1
*
 70
     0
  1
*
  1
*
  0
XRECORD
  5
119
102
{ACAD_REACTORS
330
45
102
}
330
45
100
AcDbXrecord
280
     1
  1
face4
  1
*face4*
  1
*
  1
*
 70
     0
  1
*
  1
*
  0
XRECORD
  5
11A
102
{ACAD_REACTORS
330
45
102
}
330
45
100
AcDbXrecord
280
     1
  1
FC_CLADDING
  1
*FC*
  1
*
  1
*
 70
     0
  1
*
  1
*
  0
XRECORD
  5
11B
102
{ACAD_REACTORS
330
45
102
}
330
45
100
AcDbXrecord
280
     1
  1
FENCE
  1
*FENCE*
  1
*
  1
*
 70
     0
  1
*
  1
*
  0
XRECORD
  5
11C
102
{ACAD_REACTORS
330
45
102
}
330
45
100
AcDbXrecord
280
     1
  1
FF
  1
*
  1
*
  1
*
 70
     4
  1
*
  1
*
  0
XRECORD
  5
11D
102
{ACAD_REACTORS
330
45
102
}
330
45
100
AcDbXrecord
280
     1
  1
FH
  1
*FH*
  1
*
  1
*
 70
     0
  1
*
  1
*
  0
XRECORD
  5
11E
102
{ACAD_REACTORS
330
45
102
}
330
45
100
AcDbXrecord
280
     1
  1
FILTER1
  1
*
  1
*
  1
*
 70
     0
  1
*
  1
*
  0
XRECORD
  5
11F
102
{ACAD_REACTORS
330
45
102
}
330
45
100
AcDbXrecord
280
     1
  1
fini
  1
*fini*
  1
*
  1
*
 70
     0
  1
*
  1
*
  0
XRECORD
  5
120
102
{ACAD_REACTORS
330
45
102
}
330
45
100
AcDbXrecord
280
     1
  1
finish
  1
n-*
  1
*
  1
*
 70
     0
  1
*
  1
*
  0
XRECORD
  5
121
102
{ACAD_REACTORS
330
45
102
}
330
45
100
AcDbXrecord
280
     1
  1
FIRE
  1
*FIRE*
  1
*
  1
*
 70
     0
  1
*
  1
*
  0
XRECORD
  5
122
102
{ACAD_REACTORS
330
45
102
}
330
45
100
AcDbXrecord
280
     1
  1
fixture
  1
f-*
  1
*
  1
*
 70
     0
  1
*
  1
*
  0
XRECORD
  5
123
102
{ACAD_REACTORS
330
45
102
}
330
45
100
AcDbXrecord
280
     1
  1
fl
  1
*FL*
  1
*
  1
*
 70
     0
  1
*
  1
*
  0
XRECORD
  5
124
102
{ACAD_REACTORS
330
45
102
}
330
45
100
AcDbXrecord
280
     1
  1
Floor
  1
A-Flor*
  1
*
  1
*
 70
     0
  1
*
  1
*
  0
XRECORD
  5
125
102
{ACAD_REACTORS
330
45
102
}
330
45
100
AcDbXrecord
280
     1
  1
FLOOR PLAN
  1
A-FLR-*
  1
*
  1
*
 70
     0
  1
*
  1
*
  0
XRECORD
  5
126
102
{ACAD_REACTORS
330
45
102
}
330
45
100
AcDbXrecord
280
     1
  1
fr
  1
*
  1
*
  1
*
 70
     4
  1
*
  1
*
  0
XRECORD
  5
127
102
{ACAD_REACTORS
330
45
102
}
330
45
100
AcDbXrecord
280
     1
  1
freeze
  1
*
  1
*
  1
*
 70
     4
  1
*
  1
*
  0
XRECORD
  5
128
102
{ACAD_REACTORS
330
45
102
}
330
45
100
AcDbXrecord
280
     1
  1
FRZ
  1
*
  1
*
  1
*
 70
     4
  1
*
  1
*
  0
XRECORD
  5
129
102
{ACAD_REACTORS
330
45
102
}
330
45
100
AcDbXrecord
280
     1
  1
Fugou
  1
*-Fugou*
  1
*
  1
*
 70
     0
  1
*
  1
*
  0
XRECORD
  5
12A
102
{ACAD_REACTORS
330
45
102
}
330
45
100
AcDbXrecord
280
     1
  1
FUGOU-TATEGU
  1
*FUGOU-TATEGU
  1
*
  1
*
 70
     0
  1
*
  1
*
  0
XRECORD
  5
12B
102
{ACAD_REACTORS
330
45
102
}
330
45
100
AcDbXrecord
280
     1
  1
FUKI
  1
*FUKI
  1
*
  1
*
 70
     0
  1
*
  1
*
  0
XRECORD
  5
12C
102
{ACAD_REACTORS
330
45
102
}
330
45
100
AcDbXrecord
280
     1
  1
FURN
  1
*F-*
  1
*
  1
*
 70
     0
  1
*
  1
*
  0
XRECORD
  5
12D
102
{ACAD_REACTORS
330
45
102
}
330
45
100
AcDbXrecord
280
     1
  1
FURNITURE
  1
*FN*
  1
*
  1
*
 70
     0
  1
*
  1
*
  0
XRECORD
  5
12E
102
{ACAD_REACTORS
330
45
102
}
330
45
100
AcDbXrecord
280
     1
  1
FUSE_00
  1
*
  1
*
  1
*
 70
     0
  1
*
  1
*
  0
XRECORD
  5
12F
102
{ACAD_REACTORS
330
45
102
}
330
45
100
AcDbXrecord
280
     1
  1
G
  1
*-G*
  1
*
  1
*
 70
     0
  1
*
  1
*
  0
XRECORD
  5
130
102
{ACAD_REACTORS
330
45
102
}
330
45
100
AcDbXrecord
280
     1
  1
G(開口)を表示
  1
G*
  1
*
  1
*
 70
     0
  1
*
  1
*
  0
XRECORD
  5
131
102
{ACAD_REACTORS
330
45
102
}
330
45
100
AcDbXrecord
280
     1
  1
GAIKOU
  1
*
  1
*
  1
*
 70
     0
  1
*
  1
*
  0
XRECORD
  5
132
102
{ACAD_REACTORS
330
45
102
}
330
45
100
AcDbXrecord
280
     1
  1
gel
  1
*ILLUMI*
  1
*
  1
*
 70
     0
  1
*
  1
*
  0
XRECORD
  5
133
102
{ACAD_REACTORS
330
45
102
}
330
45
100
AcDbXrecord
280
     1
  1
gen
  1
g*,*$*
  1
*
  1
*
 70
     0
  1
*
  1
*
  0
XRECORD
  5
134
102
{ACAD_REACTORS
330
45
102
}
330
45
100
AcDbXrecord
280
     1
  1
gondora
  1
a-gondora*
  1
*
  1
*
 70
     0
  1
*
  1
*
  0
XRECORD
  5
135
102
{ACAD_REACTORS
330
45
102
}
330
45
100
AcDbXrecord
280
     1
  1
green
  1
*
  1
green
  1
*
 70
     0
  1
*
  1
*
  0
XRECORD
  5
136
102
{ACAD_REACTORS
330
45
102
}
330
45
100
AcDbXrecord
280
     1
  1
GRID
  1
G*
  1
*
  1
*
 70
     0
  1
*
  1
*
  0
XRECORD
  5
137
102
{ACAD_REACTORS
330
45
102
}
330
45
100
AcDbXrecord
280
     1
  1
gris
  1
*
  1
*
  1
*
 70
     0
  1
*
  1
*
  0
XRECORD
  5
138
102
{ACAD_REACTORS
330
45
102
}
330
45
100
AcDbXrecord
280
     1
  1
H
  1
00*,01*,02*,03*,05*,06*,1*,2*,3*,4*,5*,6*,8*,D*,
  1
*
  1
*
 70
     0
  1
*
  1
*
  0
XRECORD
  5
139
102
{ACAD_REACTORS
330
45
102
}
330
45
100
AcDbXrecord
280
     1
  1
H-
  1
H-*
  1
*
  1
*
 70
     0
  1
*
  1
*
  0
XRECORD
  5
13A
102
{ACAD_REACTORS
330
45
102
}
330
45
100
AcDbXrecord
280
     1
  1
H-SIN
  1
*H-SIN
  1
*
  1
*
 70
     0
  1
*
  1
*
  0
XRECORD
  5
13B
102
{ACAD_REACTORS
330
45
102
}
330
45
100
AcDbXrecord
280
     1
  1
H(見掛)を表示
  1
H*
  1
*
  1
*
 70
     0
  1
*
  1
*
  0
XRECORD
  5
13C
102
{ACAD_REACTORS
330
45
102
}
330
45
100
AcDbXrecord
280
     1
  1
HA
  1
*HA*
  1
*
  1
*
 70
     0
  1
*
  1
*
  0
XRECORD
  5
13D
102
{ACAD_REACTORS
330
45
102
}
330
45
100
AcDbXrecord
280
     1
  1
haikin
  1
2-*
  1
*
  1
*
 70
     0
  1
*
  1
*
  0
XRECORD
  5
13E
102
{ACAD_REACTORS
330
45
102
}
330
45
100
AcDbXrecord
280
     1
  1
HAISEN
  1
*1,HAISEN
  1
*
  1
*
 70
     0
  1
*
  1
*
  0
XRECORD
  5
13F
102
{ACAD_REACTORS
330
45
102
}
330
45
100
AcDbXrecord
280
     1
  1
HARI
  1
*HARI
  1
*
  1
*
 70
     0
  1
*
  1
*
  0
XRECORD
  5
140
102
{ACAD_REACTORS
330
45
102
}
330
45
100
AcDbXrecord
280
     1
  1
hasira
  1
*hasira*
  1
*
  1
*
 70
     0
  1
*
  1
*
  0
XRECORD
  5
141
102
{ACAD_REACTORS
330
45
102
}
330
45
100
AcDbXrecord
280
     1
  1
HATCH
  1
*HATCH*
  1
*
  1
*
 70
     0
  1
*
  1
*
  0
XRECORD
  5
142
102
{ACAD_REACTORS
330
45
102
}
330
45
100
AcDbXrecord
280
     1
  1
HCP
  1
*HCP*
  1
*
  1
*
 70
     0
  1
*
  1
*
  0
XRECORD
  5
143
102
{ACAD_REACTORS
330
45
102
}
330
45
100
AcDbXrecord
280
     1
  1
HEISHO
  1
4MAJ
  1
*
  1
*
 70
     0
  1
*
  1
*
  0
XRECORD
  5
144
102
{ACAD_REACTORS
330
45
102
}
330
45
100
AcDbXrecord
280
     1
  1
HEISHO2
  1
4MAJ,3CWD,3TAT
  1
*
  1
*
 70
     0
  1
*
  1
*
  0
XRECORD
  5
145
102
{ACAD_REACTORS
330
45
102
}
330
45
100
AcDbXrecord
280
     1
  1
HIDDEN
  1
*
  1
*
  1
HIDDEN
 70
     0
  1
*
  1
*
  0
XRECORD
  5
146
102
{ACAD_REACTORS
330
45
102
}
330
45
100
AcDbXrecord
280
     1
  1
HOJO
  1
*HOJO
  1
*
  1
*
 70
     0
  1
*
  1
*
  0
XRECORD
  5
147
102
{ACAD_REACTORS
330
45
102
}
330
45
100
AcDbXrecord
280
     1
  1
hollywood
  1
*
  1
*
  1
*
 70
    12
  1
*
  1
*
  0
XRECORD
  5
148
102
{ACAD_REACTORS
330
45
102
}
330
45
100
AcDbXrecord
280
     1
  1
HOTEL
  1
*HOT*
  1
*
  1
*
 70
     0
  1
*
  1
*
  0
XRECORD
  5
149
102
{ACAD_REACTORS
330
45
102
}
330
45
100
AcDbXrecord
280
     1
  1
huse
  1
0,defpoints
  1
*
  1
*
 70
     0
  1
*
  1
*
  0
XRECORD
  5
14A
102
{ACAD_REACTORS
330
45
102
}
330
45
100
AcDbXrecord
280
     1
  1
HYOKI
  1
*HYOKI
  1
*
  1
*
 70
     0
  1
*
  1
*
  0
XRECORD
  5
14B
102
{ACAD_REACTORS
330
45
102
}
330
45
100
AcDbXrecord
280
     1
  1
HYOUKI
  1
*
  1
*
  1
*
 70
     0
  1
*
  1
*
  0
XRECORD
  5
14C
102
{ACAD_REACTORS
330
45
102
}
330
45
100
AcDbXrecord
280
     1
  1
i
  1
*
  1
*
  1
*
 70
     0
  1
*
  1
*
  0
XRECORD
  5
14D
102
{ACAD_REACTORS
330
45
102
}
330
45
100
AcDbXrecord
280
     1
  1
I(二次部材系))を表示
  1
I*
  1
*
  1
*
 70
     0
  1
*
  1
*
  0
XRECORD
  5
14E
102
{ACAD_REACTORS
330
45
102
}
330
45
100
AcDbXrecord
280
     1
  1
I2
  1
*I2CL*
  1
*
  1
*
 70
     0
  1
*
  1
*
  0
XRECORD
  5
14F
102
{ACAD_REACTORS
330
45
102
}
330
45
100
AcDbXrecord
280
     1
  1
i2cl
  1
*i2c?*
  1
*
  1
*
 70
     0
  1
*
  1
*
  0
XRECORD
  5
150
102
{ACAD_REACTORS
330
45
102
}
330
45
100
AcDbXrecord
280
     1
  1
i5
  1
*i5*
  1
*
  1
*
 70
     0
  1
*
  1
*
  0
XRECORD
  5
151
102
{ACAD_REACTORS
330
45
102
}
330
45
100
AcDbXrecord
280
     1
  1
i9
  1
*i9*
  1
*
  1
*
 70
     0
  1
*
  1
*
  0
XRECORD
  5
152
102
{ACAD_REACTORS
330
45
102
}
330
45
100
AcDbXrecord
280
     1
  1
in
  1
*
  1
*
  1
*
 70
     4
  1
*
  1
*
  0
XRECORD
  5
153
102
{ACAD_REACTORS
330
45
102
}
330
45
100
AcDbXrecord
280
     1
  1
INSERT図
  1
*
  1
*
  1
*
 70
    12
  1
*
  1
*
  0
XRECORD
  5
154
102
{ACAD_REACTORS
330
45
102
}
330
45
100
AcDbXrecord
280
     1
  1
ISSUE
  1
*-ISSUE1-*
  1
*
  1
*
 70
     0
  1
*
  1
*
  0
XRECORD
  5
155
102
{ACAD_REACTORS
330
45
102
}
330
45
100
AcDbXrecord
280
     1
  1
J
  1
*J*
  1
*
  1
*
 70
     0
  1
*
  1
*
  0
XRECORD
  5
156
102
{ACAD_REACTORS
330
45
102
}
330
45
100
AcDbXrecord
280
     1
  1
K
  1
K*
  1
*
  1
*
 70
     0
  1
*
  1
*
  0
XRECORD
  5
157
102
{ACAD_REACTORS
330
45
102
}
330
45
100
AcDbXrecord
280
     1
  1
KABE
  1
*KABE
  1
*
  1
*
 70
     0
  1
*
  1
*
  0
XRECORD
  5
158
102
{ACAD_REACTORS
330
45
102
}
330
45
100
AcDbXrecord
280
     1
  1
KABESHIN
  1
*A12
  1
*
  1
*
 70
     0
  1
*
  1
*
  0
XRECORD
  5
159
102
{ACAD_REACTORS
330
45
102
}
330
45
100
AcDbXrecord
280
     1
  1
KAGU
  1
*KAGU*
  1
*
  1
*
 70
     0
  1
*
  1
*
  0
XRECORD
  5
15A
102
{ACAD_REACTORS
330
45
102
}
330
45
100
AcDbXrecord
280
     1
  1
key
  1
keyplan
  1
*
  1
*
 70
     0
  1
*
  1
*
  0
XRECORD
  5
15B
102
{ACAD_REACTORS
330
45
102
}
330
45
100
AcDbXrecord
280
     1
  1
KI
  1
KI*
  1
*
  1
*
 70
     0
  1
*
  1
*
  0
XRECORD
  5
15C
102
{ACAD_REACTORS
330
45
102
}
330
45
100
AcDbXrecord
280
     1
  1
KIGO
  1
*KIGO*
  1
*
  1
*
 70
     0
  1
*
  1
*
  0
XRECORD
  5
15D
102
{ACAD_REACTORS
330
45
102
}
330
45
100
AcDbXrecord
280
     1
  1
KIJUN
  1
*KIJUN
  1
*
  1
*
 70
     0
  1
*
  1
*
  0
XRECORD
  5
15E
102
{ACAD_REACTORS
330
45
102
}
330
45
100
AcDbXrecord
280
     1
  1
kiso
  1
f1*
  1
*
  1
*
 70
     0
  1
*
  1
*
  0
XRECORD
  5
15F
102
{ACAD_REACTORS
330
45
102
}
330
45
100
AcDbXrecord
280
     1
  1
KSIN
  1
*2KSIN
  1
21
  1
*
 70
     0
  1
*
  1
*
  0
XRECORD
  5
160
102
{ACAD_REACTORS
330
45
102
}
330
45
100
AcDbXrecord
280
     1
  1
kui
  1
*
  1
*
  1
*
 70
     4
  1
*
  1
*
  0
XRECORD
  5
161
102
{ACAD_REACTORS
330
45
102
}
330
45
100
AcDbXrecord
280
     1
  1
KUTAI
  1
*
  1
*
  1
*
 70
     0
  1
*
  1
*
  0
XRECORD
  5
162
102
{ACAD_REACTORS
330
45
102
}
330
45
100
AcDbXrecord
280
     1
  1
L
  1
L*
  1
*
  1
*
 70
     0
  1
*
  1
*
  0
XRECORD
  5
163
102
{ACAD_REACTORS
330
45
102
}
330
45
100
AcDbXrecord
280
     1
  1
LEGEND
  1
*-C-*
  1
*
  1
*
 70
     0
  1
*
  1
*
  0
XRECORD
  5
164
102
{ACAD_REACTORS
330
45
102
}
330
45
100
AcDbXrecord
280
     1
  1
LGS
  1
*LGS*
  1
*
  1
*
 70
     0
  1
*
  1
*
  0
XRECORD
  5
165
102
{ACAD_REACTORS
330
45
102
}
330
45
100
AcDbXrecord
280
     1
  1
light
  1
*light*
  1
*
  1
*
 70
     0
  1
*
  1
*
  0
XRECORD
  5
166
102
{ACAD_REACTORS
330
45
102
}
330
45
100
AcDbXrecord
280
     1
  1
LIST
  1
*LIST*
  1
*
  1
*
 70
     0
  1
*
  1
*
  0
XRECORD
  5
167
102
{ACAD_REACTORS
330
45
102
}
330
45
100
AcDbXrecord
280
     1
  1
lixo
  1
*
  1
*
  1
*
 70
  3072
  1
*
  1
*
  0
XRECORD
  5
168
102
{ACAD_REACTORS
330
45
102
}
330
45
100
AcDbXrecord
280
     1
  1
LOCK
  1
*
  1
*
  1
*
 70
   256
  1
*
  1
*
  0
XRECORD
  5
169
102
{ACAD_REACTORS
330
45
102
}
330
45
100
AcDbXrecord
280
     1
  1
LTA
  1
*
  1
*
  1
*
 70
   768
  1
*
  1
*
  0
XRECORD
  5
16A
102
{ACAD_REACTORS
330
45
102
}
330
45
100
AcDbXrecord
280
     1
  1
Ｌ建具
  1
L*tategu*
  1
*
  1
*
 70
     0
  1
*
  1
*
  0
XRECORD
  5
16B
102
{ACAD_REACTORS
330
45
102
}
330
45
100
AcDbXrecord
280
     1
  1
M
  1
M*
  1
*
  1
*
 70
     0
  1
*
  1
*
  0
XRECORD
  5
16C
102
{ACAD_REACTORS
330
45
102
}
330
45
100
AcDbXrecord
280
     1
  1
MA
  1
MA*
  1
*
  1
*
 70
     0
  1
*
  1
*
  0
XRECORD
  5
16D
102
{ACAD_REACTORS
330
45
102
}
330
45
100
AcDbXrecord
280
     1
  1
MACONNERIE
  1
*
  1
*
  1
*
 70
     0
  1
*
  1
*
  0
XRECORD
  5
16E
102
{ACAD_REACTORS
330
45
102
}
330
45
100
AcDbXrecord
280
     1
  1
magenta
  1
*
  1
magenta
  1
*
 70
     0
  1
*
  1
*
  0
XRECORD
  5
16F
102
{ACAD_REACTORS
330
45
102
}
330
45
100
AcDbXrecord
280
     1
  1
magenta-bleu
  1
*
  1
magenta,bleu
  1
*
 70
     0
  1
*
  1
*
  0
XRECORD
  5
170
102
{ACAD_REACTORS
330
45
102
}
330
45
100
AcDbXrecord
280
     1
  1
maji
  1
*A12
  1
*
  1
*
 70
     0
  1
*
  1
*
  0
XRECORD
  5
171
102
{ACAD_REACTORS
330
45
102
}
330
45
100
AcDbXrecord
280
     1
  1
MAJIKIRI
  1
*MAJIKIRI
  1
*
  1
*
 70
     0
  1
*
  1
*
  0
XRECORD
  5
172
102
{ACAD_REACTORS
330
45
102
}
330
45
100
AcDbXrecord
280
     1
  1
marco
  1
marco*
  1
*
  1
*
 70
     0
  1
*
  1
*
  0
XRECORD
  5
173
102
{ACAD_REACTORS
330
45
102
}
330
45
100
AcDbXrecord
280
     1
  1
MB
  1
*MB
  1
*
  1
*
 70
     0
  1
*
  1
*
  0
XRECORD
  5
174
102
{ACAD_REACTORS
330
45
102
}
330
45
100
AcDbXrecord
280
     1
  1
meji
  1
*MEJI
  1
*
  1
*
 70
     0
  1
*
  1
*
  0
XRECORD
  5
175
102
{ACAD_REACTORS
330
45
102
}
330
45
100
AcDbXrecord
280
     1
  1
merceologico
  1
mq*
  1
*
  1
*
 70
     0
  1
*
  1
*
  0
XRECORD
  5
176
102
{ACAD_REACTORS
330
45
102
}
330
45
100
AcDbXrecord
280
     1
  1
MILL
  1
*MILL*
  1
*
  1
*
 70
     0
  1
*
  1
*
  0
XRECORD
  5
177
102
{ACAD_REACTORS
330
45
102
}
330
45
100
AcDbXrecord
280
     1
  1
MILLWORK
  1
*mILL*
  1
*
  1
*
 70
     0
  1
*
  1
*
  0
XRECORD
  5
178
102
{ACAD_REACTORS
330
45
102
}
330
45
100
AcDbXrecord
280
     1
  1
miwa
  1
*
  1
*
  1
*
 70
     0
  1
*
  1
*
  0
XRECORD
  5
179
102
{ACAD_REACTORS
330
45
102
}
330
45
100
AcDbXrecord
280
     1
  1
MOJI
  1
*MOJI
  1
*
  1
*
 70
     0
  1
*
  1
*
  0
XRECORD
  5
17A
102
{ACAD_REACTORS
330
45
102
}
330
45
100
AcDbXrecord
280
     1
  1
MOJI100
  1
*5MOJI100
  1
3
  1
*
 70
     0
  1
*
  1
*
  0
XRECORD
  5
17B
102
{ACAD_REACTORS
330
45
102
}
330
45
100
AcDbXrecord
280
     1
  1
N
  1
*N*
  1
*
  1
*
 70
     0
  1
*
  1
*
  0
XRECORD
  5
17C
102
{ACAD_REACTORS
330
45
102
}
330
45
100
AcDbXrecord
280
     1
  1
N-
  1
N-*
  1
*
  1
*
 70
     0
  1
*
  1
*
  0
XRECORD
  5
17D
102
{ACAD_REACTORS
330
45
102
}
330
45
100
AcDbXrecord
280
     1
  1
NAM
  1
*NAM*
  1
*
  1
*
 70
     0
  1
*
  1
*
  0
XRECORD
  5
17E
102
{ACAD_REACTORS
330
45
102
}
330
45
100
AcDbXrecord
280
     1
  1
NEW
  1
*NEW*
  1
*
  1
*
 70
     0
  1
*
  1
*
  0
XRECORD
  5
17F
102
{ACAD_REACTORS
330
45
102
}
330
45
100
AcDbXrecord
280
     1
  1
NHK
  1
N*
  1
*
  1
*
 70
     0
  1
*
  1
*
  0
XRECORD
  5
42A
102
{ACAD_REACTORS
330
45
102
}
330
45
100
AcDbXrecord
280
     1
  1
niimi
  1
*
  1
*
  1
*
 70
     0
  1
*
  1
*
  0
XRECORD
  5
180
102
{ACAD_REACTORS
330
45
102
}
330
45
100
AcDbXrecord
280
     1
  1
no xref
  1
~*|*
  1
*
  1
*
 70
     0
  1
*
  1
*
  0
XRECORD
  5
181
102
{ACAD_REACTORS
330
45
102
}
330
45
100
AcDbXrecord
280
     1
  1
note
  1
tca-6f|*note*
  1
*
  1
*
 70
     0
  1
*
  1
*
  0
XRECORD
  5
182
102
{ACAD_REACTORS
330
45
102
}
330
45
100
AcDbXrecord
280
     1
  1
NUM
  1
*NUM*
  1
*
  1
*
 70
     0
  1
*
  1
*
  0
XRECORD
  5
183
102
{ACAD_REACTORS
330
45
102
}
330
45
100
AcDbXrecord
280
     1
  1
NUMB
  1
*NUM*
  1
*
  1
*
 70
     0
  1
*
  1
*
  0
XRECORD
  5
184
102
{ACAD_REACTORS
330
45
102
}
330
45
100
AcDbXrecord
280
     1
  1
O
  1
*O*
  1
*
  1
*
 70
     0
  1
*
  1
*
  0
XRECORD
  5
185
102
{ACAD_REACTORS
330
45
102
}
330
45
100
AcDbXrecord
280
     1
  1
OF
  1
*
  1
*
  1
*
 70
     3
  1
*
  1
*
  0
XRECORD
  5
186
102
{ACAD_REACTORS
330
45
102
}
330
45
100
AcDbXrecord
280
     1
  1
OFF
  1
*
  1
*
  1
*
 70
     3
  1
*
  1
*
  0
XRECORD
  5
187
102
{ACAD_REACTORS
330
45
102
}
330
45
100
AcDbXrecord
280
     1
  1
on
  1
*
  1
*
  1
*
 70
    13
  1
*
  1
*
  0
XRECORD
  5
188
102
{ACAD_REACTORS
330
45
102
}
330
45
100
AcDbXrecord
280
     1
  1
option 1
  1
1*
  1
*
  1
*
 70
     0
  1
*
  1
*
  0
XRECORD
  5
189
102
{ACAD_REACTORS
330
45
102
}
330
45
100
AcDbXrecord
280
     1
  1
option 2
  1
2*
  1
*
  1
*
 70
     0
  1
*
  1
*
  0
XRECORD
  5
18A
102
{ACAD_REACTORS
330
45
102
}
330
45
100
AcDbXrecord
280
     1
  1
OUTLINE
  1
T_*|OUTLINE
  1
*
  1
*
 70
     0
  1
*
  1
*
  0
XRECORD
  5
18B
102
{ACAD_REACTORS
330
45
102
}
330
45
100
AcDbXrecord
280
     1
  1
P
  1
*-P*
  1
*
  1
*
 70
     0
  1
*
  1
*
  0
XRECORD
  5
18C
102
{ACAD_REACTORS
330
45
102
}
330
45
100
AcDbXrecord
280
     1
  1
pa
  1
*pa*
  1
*
  1
*
 70
     0
  1
*
  1
*
  0
XRECORD
  5
18D
102
{ACAD_REACTORS
330
45
102
}
330
45
100
AcDbXrecord
280
     1
  1
PALFOND
  1
*
  1
*
  1
*
 70
    13
  1
*
  1
*
  0
XRECORD
  5
18E
102
{ACAD_REACTORS
330
45
102
}
330
45
100
AcDbXrecord
280
     1
  1
PAT
  1
*PAT*
  1
*
  1
*
 70
     0
  1
*
  1
*
  0
XRECORD
  5
18F
102
{ACAD_REACTORS
330
45
102
}
330
45
100
AcDbXrecord
280
     1
  1
PC
  1
PC*
  1
*
  1
*
 70
     0
  1
*
  1
*
  0
XRECORD
  5
190
102
{ACAD_REACTORS
330
45
102
}
330
45
100
AcDbXrecord
280
     1
  1
PISO
  1
*PISO
  1
*
  1
*
 70
     0
  1
*
  1
*
  0
XRECORD
  5
191
102
{ACAD_REACTORS
330
45
102
}
330
45
100
AcDbXrecord
280
     1
  1
PLAN
  1
A*,B*,SITE*
  1
*
  1
*
 70
     0
  1
*
  1
*
  0
XRECORD
  5
192
102
{ACAD_REACTORS
330
45
102
}
330
45
100
AcDbXrecord
280
     1
  1
PLMB
  1
*PLMB*
  1
*
  1
*
 70
     0
  1
*
  1
*
  0
XRECORD
  5
193
102
{ACAD_REACTORS
330
45
102
}
330
45
100
AcDbXrecord
280
     1
  1
plot
  1
*
  1
*
  1
*
 70
     1
  1
*
  1
*
  0
XRECORD
  5
194
102
{ACAD_REACTORS
330
45
102
}
330
45
100
AcDbXrecord
280
     1
  1
PLUMB
  1
*PLUMB*
  1
*
  1
*
 70
     0
  1
*
  1
*
  0
XRECORD
  5
195
102
{ACAD_REACTORS
330
45
102
}
330
45
100
AcDbXrecord
280
     1
  1
PNL
  1
*PNL*
  1
*
  1
*
 70
     0
  1
*
  1
*
  0
XRECORD
  5
196
102
{ACAD_REACTORS
330
45
102
}
330
45
100
AcDbXrecord
280
     1
  1
power
  1
p-*
  1
*
  1
*
 70
     0
  1
*
  1
*
  0
XRECORD
  5
197
102
{ACAD_REACTORS
330
45
102
}
330
45
100
AcDbXrecord
280
     1
  1
PRT
  1
*PRT*
  1
*
  1
*
 70
     0
  1
*
  1
*
  0
XRECORD
  5
198
102
{ACAD_REACTORS
330
45
102
}
330
45
100
AcDbXrecord
280
     1
  1
q
  1
*
  1
*
  1
*
 70
     4
  1
*
  1
*
  0
XRECORD
  5
199
102
{ACAD_REACTORS
330
45
102
}
330
45
100
AcDbXrecord
280
     1
  1
R
  1
R*
  1
*
  1
*
 70
     0
  1
*
  1
*
  0
XRECORD
  5
19A
102
{ACAD_REACTORS
330
45
102
}
330
45
100
AcDbXrecord
280
     1
  1
rack
  1
*rack*
  1
*
  1
*
 70
     0
  1
*
  1
*
  0
XRECORD
  5
19B
102
{ACAD_REACTORS
330
45
102
}
330
45
100
AcDbXrecord
280
     1
  1
RC
  1
*RC
  1
*
  1
*
 70
     0
  1
*
  1
*
  0
XRECORD
  5
19C
102
{ACAD_REACTORS
330
45
102
}
330
45
100
AcDbXrecord
280
     1
  1
RCP
  1
A*,C*
  1
*
  1
*
 70
     0
  1
*
  1
*
  0
XRECORD
  5
19D
102
{ACAD_REACTORS
330
45
102
}
330
45
100
AcDbXrecord
280
     1
  1
rm
  1
*r*
  1
*
  1
*
 70
     0
  1
*
  1
*
  0
XRECORD
  5
19E
102
{ACAD_REACTORS
330
45
102
}
330
45
100
AcDbXrecord
280
     1
  1
RMTAGS
  1
R*
  1
*
  1
*
 70
     0
  1
*
  1
*
  0
XRECORD
  5
19F
102
{ACAD_REACTORS
330
45
102
}
330
45
100
AcDbXrecord
280
     1
  1
RNUM
  1
*NUM*
  1
*
  1
*
 70
     0
  1
*
  1
*
  0
XRECORD
  5
1A0
102
{ACAD_REACTORS
330
45
102
}
330
45
100
AcDbXrecord
280
     1
  1
ROOM
  1
*RM*
  1
*
  1
*
 70
     0
  1
*
  1
*
  0
XRECORD
  5
1A1
102
{ACAD_REACTORS
330
45
102
}
330
45
100
AcDbXrecord
280
     1
  1
roomno
  1
*num*
  1
*
  1
*
 70
     0
  1
*
  1
*
  0
XRECORD
  5
1A2
102
{ACAD_REACTORS
330
45
102
}
330
45
100
AcDbXrecord
280
     1
  1
rouge
  1
*
  1
1
  1
*
 70
     1
  1
*
  1
*
  0
XRECORD
  5
1A3
102
{ACAD_REACTORS
330
45
102
}
330
45
100
AcDbXrecord
280
     1
  1
rtkl
  1
*rtkl*
  1
*
  1
*
 70
     0
  1
*
  1
*
  0
XRECORD
  5
1A4
102
{ACAD_REACTORS
330
45
102
}
330
45
100
AcDbXrecord
280
     1
  1
S
  1
0,05*,11*,12*,13*,14*,20*,21*,22*,55*,56*,
  1
*
  1
*
 70
     0
  1
*
  1
*
  0
XRECORD
  5
1A5
102
{ACAD_REACTORS
330
45
102
}
330
45
100
AcDbXrecord
280
     1
  1
saciencewold
  1
*
  1
*
  1
*
 70
     0
  1
*
  1
*
  0
XRECORD
  5
1A6
102
{ACAD_REACTORS
330
45
102
}
330
45
100
AcDbXrecord
280
     1
  1
SETUBI
  1
*SETUBI
  1
*
  1
*
 70
     0
  1
*
  1
*
  0
XRECORD
  5
1A7
102
{ACAD_REACTORS
330
45
102
}
330
45
100
AcDbXrecord
280
     1
  1
SHITU
  1
*SHITUMEI*
  1
*
  1
*
 70
     0
  1
*
  1
*
  0
XRECORD
  5
1A8
102
{ACAD_REACTORS
330
45
102
}
330
45
100
AcDbXrecord
280
     1
  1
SHITUMEI
  1
*SHITUMEI2
  1
*
  1
*
 70
     0
  1
*
  1
*
  0
XRECORD
  5
1A9
102
{ACAD_REACTORS
330
45
102
}
330
45
100
AcDbXrecord
280
     1
  1
SIAG
  1
*3SIAG
  1
*
  1
*
 70
     0
  1
*
  1
*
  0
XRECORD
  5
1AA
102
{ACAD_REACTORS
330
45
102
}
330
45
100
AcDbXrecord
280
     1
  1
SIAG-N
  1
*3SIAG-N
  1
7
  1
*
 70
     0
  1
*
  1
*
  0
XRECORD
  5
1AB
102
{ACAD_REACTORS
330
45
102
}
330
45
100
AcDbXrecord
280
     1
  1
SIAG3
  1
*3SIAG3
  1
3
  1
*
 70
     0
  1
*
  1
*
  0
XRECORD
  5
1AC
102
{ACAD_REACTORS
330
45
102
}
330
45
100
AcDbXrecord
280
     1
  1
sin
  1
*SIN*
  1
*
  1
*
 70
     0
  1
*
  1
*
  0
XRECORD
  5
1AD
102
{ACAD_REACTORS
330
45
102
}
330
45
100
AcDbXrecord
280
     1
  1
Sinm
  1
*-Sinm*
  1
*
  1
*
 70
     0
  1
*
  1
*
  0
XRECORD
  5
1AE
102
{ACAD_REACTORS
330
45
102
}
330
45
100
AcDbXrecord
280
     1
  1
SITA
  1
*3SITA
  1
*
  1
*
 70
     0
  1
*
  1
*
  0
XRECORD
  5
1AF
102
{ACAD_REACTORS
330
45
102
}
330
45
100
AcDbXrecord
280
     1
  1
siyah
  1
*
  1
*
  1
*
 70
     4
  1
*
  1
siyah
  0
XRECORD
  5
1B0
102
{ACAD_REACTORS
330
45
102
}
330
45
100
AcDbXrecord
280
     1
  1
SS
  1
*SS*
  1
*
  1
*
 70
     0
  1
*
  1
*
  0
XRECORD
  5
1B1
102
{ACAD_REACTORS
330
45
102
}
330
45
100
AcDbXrecord
280
     1
  1
ST
  1
*ST*
  1
*
  1
*
 70
     0
  1
*
  1
*
  0
XRECORD
  5
1B2
102
{ACAD_REACTORS
330
45
102
}
330
45
100
AcDbXrecord
280
     1
  1
STA
  1
STA*
  1
*
  1
*
 70
     0
  1
*
  1
*
  0
XRECORD
  5
1B3
102
{ACAD_REACTORS
330
45
102
}
330
45
100
AcDbXrecord
280
     1
  1
stairs
  1
*sta*
  1
*
  1
*
 70
     0
  1
*
  1
*
  0
XRECORD
  5
1B4
102
{ACAD_REACTORS
330
45
102
}
330
45
100
AcDbXrecord
280
     1
  1
SUGA5
  1
*4SUGA5
  1
5
  1
*
 70
     0
  1
*
  1
*
  0
XRECORD
  5
1B5
102
{ACAD_REACTORS
330
45
102
}
330
45
100
AcDbXrecord
280
     1
  1
SUNP
  1
*5SUNP100
  1
1
  1
*
 70
     0
  1
*
  1
*
  0
XRECORD
  5
1B6
102
{ACAD_REACTORS
330
45
102
}
330
45
100
AcDbXrecord
280
     1
  1
SUNP100
  1
*5SUNP100
  1
*
  1
*
 70
     0
  1
*
  1
*
  0
XRECORD
  5
1B7
102
{ACAD_REACTORS
330
45
102
}
330
45
100
AcDbXrecord
280
     1
  1
T
  1
T*
  1
*
  1
*
 70
     0
  1
*
  1
*
  0
XRECORD
  5
1B8
102
{ACAD_REACTORS
330
45
102
}
330
45
100
AcDbXrecord
280
     1
  1
TAKASA
  1
*
  1
2
  1
*
 70
     0
  1
*
  1
*
  0
XRECORD
  5
1B9
102
{ACAD_REACTORS
330
45
102
}
330
45
100
AcDbXrecord
280
     1
  1
TATE161
  1
*4TATE161
  1
161
  1
*
 70
     0
  1
*
  1
*
  0
XRECORD
  5
1BA
102
{ACAD_REACTORS
330
45
102
}
330
45
100
AcDbXrecord
280
     1
  1
TATEGU
  1
*TATEGU
  1
*
  1
*
 70
     0
  1
*
  1
*
  0
XRECORD
  5
1BB
102
{ACAD_REACTORS
330
45
102
}
330
45
100
AcDbXrecord
280
     1
  1
ten
  1
*ten*
  1
*
  1
*
 70
     0
  1
*
  1
*
  0
XRECORD
  5
1BC
102
{ACAD_REACTORS
330
45
102
}
330
45
100
AcDbXrecord
280
     1
  1
TENJYOU
  1
C-*
  1
*
  1
*
 70
     0
  1
*
  1
*
  0
XRECORD
  5
1BD
102
{ACAD_REACTORS
330
45
102
}
330
45
100
AcDbXrecord
280
     1
  1
TENJYOUNAI
  1
CI-*
  1
*
  1
*
 70
     0
  1
*
  1
*
  0
XRECORD
  5
1BE
102
{ACAD_REACTORS
330
45
102
}
330
45
100
AcDbXrecord
280
     1
  1
test
  1
keyplan
  1
*
  1
*
 70
     0
  1
*
  1
*
  0
XRECORD
  5
1BF
102
{ACAD_REACTORS
330
45
102
}
330
45
100
AcDbXrecord
280
     1
  1
text
  1
*text*
  1
*
  1
*
 70
     0
  1
*
  1
*
  0
XRECORD
  5
1C0
102
{ACAD_REACTORS
330
45
102
}
330
45
100
AcDbXrecord
280
     1
  1
thaw
  1
*
  1
*
  1
*
 70
    12
  1
*
  1
*
  0
XRECORD
  5
1C1
102
{ACAD_REACTORS
330
45
102
}
330
45
100
AcDbXrecord
280
     1
  1
TITL
  1
*8TITL
  1
4
  1
*
 70
     0
  1
*
  1
*
  0
XRECORD
  5
1C2
102
{ACAD_REACTORS
330
45
102
}
330
45
100
AcDbXrecord
280
     1
  1
tnjyou
  1
c-*
  1
*
  1
*
 70
     0
  1
*
  1
*
  0
XRECORD
  5
1C3
102
{ACAD_REACTORS
330
45
102
}
330
45
100
AcDbXrecord
280
     1
  1
tori
  1
*A11
  1
*
  1
*
 70
     0
  1
*
  1
*
  0
XRECORD
  5
1C4
102
{ACAD_REACTORS
330
45
102
}
330
45
100
AcDbXrecord
280
     1
  1
TORISHIN
  1
*A11
  1
*
  1
*
 70
     0
  1
*
  1
*
  0
XRECORD
  5
1C5
102
{ACAD_REACTORS
330
45
102
}
330
45
100
AcDbXrecord
280
     1
  1
tr
  1
*tr*
  1
*
  1
*
 70
     0
  1
*
  1
*
  0
XRECORD
  5
1C6
102
{ACAD_REACTORS
330
45
102
}
330
45
100
AcDbXrecord
280
     1
  1
TSIN
  1
*2TSIN
  1
*
  1
*
 70
     0
  1
*
  1
*
  0
XRECORD
  5
1C7
102
{ACAD_REACTORS
330
45
102
}
330
45
100
AcDbXrecord
280
     1
  1
TXT
  1
*TX*
  1
*
  1
*
 70
     0
  1
*
  1
*
  0
XRECORD
  5
1C8
102
{ACAD_REACTORS
330
45
102
}
330
45
100
AcDbXrecord
280
     1
  1
UNFREEZ
  1
*
  1
*
  1
*
 70
    12
  1
*
  1
*
  0
XRECORD
  5
1C9
102
{ACAD_REACTORS
330
45
102
}
330
45
100
AcDbXrecord
280
     1
  1
UNROCK
  1
*
  1
*
  1
*
 70
   768
  1
*
  1
*
  0
XRECORD
  5
1CA
102
{ACAD_REACTORS
330
45
102
}
330
45
100
AcDbXrecord
280
     1
  1
wada
  1
*
  1
*
  1
*
 70
     0
  1
*
  1
*
  0
XRECORD
  5
1CB
102
{ACAD_REACTORS
330
45
102
}
330
45
100
AcDbXrecord
280
     1
  1
waku
  1
waku
  1
*
  1
*
 70
     0
  1
*
  1
*
  0
XRECORD
  5
1CC
102
{ACAD_REACTORS
330
45
102
}
330
45
100
AcDbXrecord
280
     1
  1
X
  1
*$*$*
  1
*
  1
*
 70
     0
  1
*
  1
*
  0
XRECORD
  5
1CD
102
{ACAD_REACTORS
330
45
102
}
330
45
100
AcDbXrecord
280
     1
  1
X(敷地)を表示
  1
X*
  1
*
  1
*
 70
     0
  1
*
  1
*
  0
XRECORD
  5
1CE
102
{ACAD_REACTORS
330
45
102
}
330
45
100
AcDbXrecord
280
     1
  1
xref
  1
ground*
  1
*
  1
*
 70
     0
  1
*
  1
*
  0
XRECORD
  5
1CF
102
{ACAD_REACTORS
330
45
102
}
330
45
100
AcDbXrecord
280
     1
  1
YAJI
  1
*YAJI*
  1
*
  1
*
 70
     0
  1
*
  1
*
  0
XRECORD
  5
1D0
102
{ACAD_REACTORS
330
45
102
}
330
45
100
AcDbXrecord
280
     1
  1
yellow
  1
*
  1
yellow
  1
*
 70
     0
  1
*
  1
*
  0
XRECORD
  5
1D1
102
{ACAD_REACTORS
330
45
102
}
330
45
100
AcDbXrecord
280
     1
  1
YUKA
  1
F-*
  1
*
  1
*
 70
     0
  1
*
  1
*
  0
XRECORD
  5
1D2
102
{ACAD_REACTORS
330
45
102
}
330
45
100
AcDbXrecord
280
     1
  1
yその他
  1
y*
  1
*
  1
*
 70
     0
  1
*
  1
*
  0
XRECORD
  5
1D3
102
{ACAD_REACTORS
330
45
102
}
330
45
100
AcDbXrecord
280
     1
  1
Z
  1
Z*
  1
*
  1
*
 70
     0
  1
*
  1
*
  0
XRECORD
  5
1D4
102
{ACAD_REACTORS
330
45
102
}
330
45
100
AcDbXrecord
280
     1
  1
ZATU
  1
*ZATU
  1
*
  1
*
 70
     0
  1
*
  1
*
  0
XRECORD
  5
1D5
102
{ACAD_REACTORS
330
45
102
}
330
45
100
AcDbXrecord
280
     1
  1
z図枠
  1
z*
  1
*
  1
*
 70
     0
  1
*
  1
*
  0
XRECORD
  5
1D6
102
{ACAD_REACTORS
330
45
102
}
330
45
100
AcDbXrecord
280
     1
  1
к
  1
к-*
  1
*
  1
*
 70
     0
  1
*
  1
*
  0
XRECORD
  5
1D7
102
{ACAD_REACTORS
330
45
102
}
330
45
100
AcDbXrecord
280
     1
  1
перегородки
  1
*перегород*
  1
*
  1
*
 70
     0
  1
*
  1
*
  0
XRECORD
  5
1D8
102
{ACAD_REACTORS
330
45
102
}
330
45
100
AcDbXrecord
280
     1
  1
イベント給水
  1
*い*
  1
*
  1
*
 70
     0
  1
*
  1
*
  0
XRECORD
  5
1D9
102
{ACAD_REACTORS
330
45
102
}
330
45
100
AcDbXrecord
280
     1
  1
ガラス
  1
*HMOJI
  1
*
  1
*
 70
     0
  1
*
  1
*
  0
XRECORD
  5
1DA
102
{ACAD_REACTORS
330
45
102
}
330
45
100
AcDbXrecord
280
     1
  1
キ-プラン
  1
*HMOJI,*HOJO2,*HOJO4,*SINSEI
  1
*
  1
*
 70
     0
  1
*
  1
*
  0
XRECORD
  5
1DB
102
{ACAD_REACTORS
330
45
102
}
330
45
100
AcDbXrecord
280
     1
  1
キープラン
  1
キープラン*
  1
*
  1
*
 70
     0
  1
*
  1
*
  0
XRECORD
  5
1DC
102
{ACAD_REACTORS
330
45
102
}
330
45
100
AcDbXrecord
280
     1
  1
さーくる
  1
*
  1
*
  1
*
 70
     0
  1
*
  1
*
  0
XRECORD
  5
1DD
102
{ACAD_REACTORS
330
45
102
}
330
45
100
AcDbXrecord
280
     1
  1
シェルター
  1
シェルター*
  1
*
  1
*
 70
     0
  1
*
  1
*
  0
XRECORD
  5
1DE
102
{ACAD_REACTORS
330
45
102
}
330
45
100
AcDbXrecord
280
     1
  1
すべてに反映
  1
*す*
  1
*
  1
*
 70
     0
  1
*
  1
*
  0
XRECORD
  5
1DF
102
{ACAD_REACTORS
330
45
102
}
330
45
100
AcDbXrecord
280
     1
  1
スロープ
  1
SL*
  1
*
  1
*
 70
     0
  1
*
  1
*
  0
XRECORD
  5
1E0
102
{ACAD_REACTORS
330
45
102
}
330
45
100
AcDbXrecord
280
     1
  1
タイル割付平面図
  1
タイル*
  1
*
  1
*
 70
     0
  1
*
  1
*
  0
XRECORD
  5
1E1
102
{ACAD_REACTORS
330
45
102
}
330
45
100
AcDbXrecord
280
     1
  1
ﾃｷｽﾄのみ表示
  1
*NZ5-TEXT
  1
*
  1
*
 70
     0
  1
*
  1
*
  0
XRECORD
  5
1E2
102
{ACAD_REACTORS
330
45
102
}
330
45
100
AcDbXrecord
280
     1
  1
ハッチング
  1
*ハッチング
  1
*
  1
*
 70
     0
  1
*
  1
*
  0
XRECORD
  5
1E3
102
{ACAD_REACTORS
330
45
102
}
330
45
100
AcDbXrecord
280
     1
  1
フリーズ
  1
*
  1
*
  1
*
 70
     4
  1
*
  1
*
  0
XRECORD
  5
1E4
102
{ACAD_REACTORS
330
45
102
}
330
45
100
AcDbXrecord
280
     1
  1
フリーズof
  1
*
  1
*
  1
*
 70
    12
  1
*
  1
*
  0
XRECORD
  5
1E5
102
{ACAD_REACTORS
330
45
102
}
330
45
100
AcDbXrecord
280
     1
  1
ﾌﾘｰｽﾞ画層非表示
  1
*
  1
*
  1
*
 70
    12
  1
*
  1
*
  0
XRECORD
  5
1E6
102
{ACAD_REACTORS
330
45
102
}
330
45
100
AcDbXrecord
280
     1
  1
ﾌﾘｰｽﾞ画面非表示
  1
*
  1
*
  1
*
 70
    12
  1
*
  1
*
  0
XRECORD
  5
1E7
102
{ACAD_REACTORS
330
45
102
}
330
45
100
AcDbXrecord
280
     1
  1
ﾌﾘｰｽﾞ解除
  1
*
  1
*
  1
*
 70
    12
  1
*
  1
*
  0
XRECORD
  5
1E8
102
{ACAD_REACTORS
330
45
102
}
330
45
100
AcDbXrecord
280
     1
  1
フリーズ解除
  1
*
  1
*
  1
*
 70
    12
  1
*
  1
*
  0
XRECORD
  5
1E9
102
{ACAD_REACTORS
330
45
102
}
330
45
100
AcDbXrecord
280
     1
  1
ﾌﾟﾚｾﾞﾝ枠
  1
*|ﾌﾟﾚｾﾞﾝ枠
  1
*
  1
*
 70
     0
  1
*
  1
*
  0
XRECORD
  5
1EA
102
{ACAD_REACTORS
330
45
102
}
330
45
100
AcDbXrecord
280
     1
  1
マーク
  1
*マーク
  1
*
  1
*
 70
     0
  1
*
  1
*
  0
XRECORD
  5
1EB
102
{ACAD_REACTORS
330
45
102
}
330
45
100
AcDbXrecord
280
     1
  1
ﾒｲﾝﾌﾟﾗｻﾞ
  1
*め*
  1
*
  1
*
 70
     0
  1
*
  1
*
  0
XRECORD
  5
1EC
102
{ACAD_REACTORS
330
45
102
}
330
45
100
AcDbXrecord
280
     1
  1
レベル
  1
*た*
  1
*
  1
*
 70
     0
  1
*
  1
*
  0
XRECORD
  5
1ED
102
{ACAD_REACTORS
330
45
102
}
330
45
100
AcDbXrecord
280
     1
  1
ロック
  1
*
  1
*
  1
*
 70
   256
  1
*
  1
*
  0
XRECORD
  5
1EE
102
{ACAD_REACTORS
330
45
102
}
330
45
100
AcDbXrecord
280
     1
  1
一括非表示
  1
*
  1
*
  1
*
 70
     3
  1
*
  1
*
  0
XRECORD
  5
1EF
102
{ACAD_REACTORS
330
45
102
}
330
45
100
AcDbXrecord
280
     1
  1
一般図
  1
hatch
  1
*
  1
*
 70
     7
  1
*
  1
*
  0
XRECORD
  5
1F0
102
{ACAD_REACTORS
330
45
102
}
330
45
100
AcDbXrecord
280
     1
  1
印刷
  1
*
  1
*
  1
*
 70
    13
  1
*
  1
*
  0
XRECORD
  5
1F1
102
{ACAD_REACTORS
330
45
102
}
330
45
100
AcDbXrecord
280
     1
  1
荏原機器
  1
KIKI*
  1
*
  1
*
 70
     0
  1
*
  1
*
  0
XRECORD
  5
1F2
102
{ACAD_REACTORS
330
45
102
}
330
45
100
AcDbXrecord
280
     1
  1
荏原機器基礎
  1
a3*,KIKI*,text*,stage,矢視記号
  1
*
  1
*
 70
     0
  1
*
  1
*
  0
XRECORD
  5
1F3
102
{ACAD_REACTORS
330
45
102
}
330
45
100
AcDbXrecord
280
     1
  1
衛生設備図
  1
001*,002*,004*,005*,007*,010*,039*,040*,041*,042*,043*
  1
*
  1
*
 70
     0
  1
*
  1
*
  0
XRECORD
  5
1F4
102
{ACAD_REACTORS
330
45
102
}
330
45
100
AcDbXrecord
280
     1
  1
黄色
  1
*
  1
YELLOW
  1
*
 70
     0
  1
*
  1
*
  0
XRECORD
  5
1F5
102
{ACAD_REACTORS
330
45
102
}
330
45
100
AcDbXrecord
280
     1
  1
下階
  1
下階*
  1
*
  1
*
 70
     0
  1
*
  1
*
  0
XRECORD
  5
1F6
102
{ACAD_REACTORS
330
45
102
}
330
45
100
AcDbXrecord
280
     1
  1
下地
  1
*-下
  1
*
  1
*
 70
     0
  1
*
  1
*
  0
XRECORD
  5
1F7
102
{ACAD_REACTORS
330
45
102
}
330
45
100
AcDbXrecord
280
     1
  1
外構
  1
外構*
  1
*
  1
*
 70
     0
  1
*
  1
*
  0
XRECORD
  5
1F8
102
{ACAD_REACTORS
330
45
102
}
330
45
100
AcDbXrecord
280
     1
  1
外部参照－建築
  1
A*
  1
9
  1
*
 70
     0
  1
*
  1
*
  0
XRECORD
  5
1F9
102
{ACAD_REACTORS
330
45
102
}
330
45
100
AcDbXrecord
280
     1
  1
外部参照除く
  1
A*
  1
*
  1
*
 70
     0
  1
*
  1
*
  0
XRECORD
  5
1FA
102
{ACAD_REACTORS
330
45
102
}
330
45
100
AcDbXrecord
280
     1
  1
割り付け平面図
  1
*わ*
  1
*
  1
*
 70
     0
  1
*
  1
*
  0
XRECORD
  5
1FB
102
{ACAD_REACTORS
330
45
102
}
330
45
100
AcDbXrecord
280
     1
  1
割付平面図
  1
*わ*
  1
*
  1
*
 70
     0
  1
*
  1
*
  0
XRECORD
  5
1FC
102
{ACAD_REACTORS
330
45
102
}
330
45
100
AcDbXrecord
280
     1
  1
潅水平面
  1
*か*
  1
*
  1
*
 70
     0
  1
*
  1
*
  0
XRECORD
  5
1FD
102
{ACAD_REACTORS
330
45
102
}
330
45
100
AcDbXrecord
280
     1
  1
基
  1
*_基
  1
*
  1
*
 70
     0
  1
*
  1
*
  0
XRECORD
  5
1FE
102
{ACAD_REACTORS
330
45
102
}
330
45
100
AcDbXrecord
280
     1
  1
基準
  1
基*
  1
*
  1
*
 70
     0
  1
*
  1
*
  0
XRECORD
  5
1FF
102
{ACAD_REACTORS
330
45
102
}
330
45
100
AcDbXrecord
280
     1
  1
基準階
  1
*基準*
  1
*
  1
*
 70
     0
  1
*
  1
*
  0
XRECORD
  5
200
102
{ACAD_REACTORS
330
45
102
}
330
45
100
AcDbXrecord
280
     1
  1
基礎OFF
  1
+*
  1
*
  1
*
 70
     0
  1
*
  1
*
  0
XRECORD
  5
201
102
{ACAD_REACTORS
330
45
102
}
330
45
100
AcDbXrecord
280
     1
  1
基礎伏
  1
*
  1
*
  1
*
 70
     0
  1
*
  1
*
  0
XRECORD
  5
202
102
{ACAD_REACTORS
330
45
102
}
330
45
100
AcDbXrecord
280
     1
  1
基礎伏図
  1
SIZE,HOJO,ZATU,HATCH,GL-HARI,GL-HASIRA,KISO,KUI,MOJI-K1,GL-FUGO,SUNPO-K1,SUNPO,SUNPO2,SUNPO1,KIJUN3,KIJUN,SIZE
  1
*
  1
*
 70
     0
  1
*
  1
*
  0
XRECORD
  5
203
102
{ACAD_REACTORS
330
45
102
}
330
45
100
AcDbXrecord
280
     1
  1
基盤改良平面図
  1
*き*
  1
*
  1
*
 70
     0
  1
*
  1
*
  0
XRECORD
  5
204
102
{ACAD_REACTORS
330
45
102
}
330
45
100
AcDbXrecord
280
     1
  1
既存杭
  1
既存杭*
  1
*
  1
*
 70
     0
  1
*
  1
*
  0
XRECORD
  5
205
102
{ACAD_REACTORS
330
45
102
}
330
45
100
AcDbXrecord
280
     1
  1
機器
  1
KIKI*
  1
*
  1
*
 70
     0
  1
*
  1
*
  0
XRECORD
  5
206
102
{ACAD_REACTORS
330
45
102
}
330
45
100
AcDbXrecord
280
     1
  1
機器基礎
  1
a3*,KIKI*,text*,stage,矢視記号
  1
*
  1
*
 70
     0
  1
*
  1
*
  0
XRECORD
  5
207
102
{ACAD_REACTORS
330
45
102
}
330
45
100
AcDbXrecord
280
     1
  1
記号
  1
*記号
  1
*
  1
*
 70
     0
  1
*
  1
*
  0
XRECORD
  5
208
102
{ACAD_REACTORS
330
45
102
}
330
45
100
AcDbXrecord
280
     1
  1
給水設備平面図
  1
*み*
  1
*
  1
*
 70
     0
  1
*
  1
*
  0
XRECORD
  5
209
102
{ACAD_REACTORS
330
45
102
}
330
45
100
AcDbXrecord
280
     1
  1
給水平面
  1
*き*
  1
*
  1
*
 70
     0
  1
*
  1
*
  0
XRECORD
  5
20A
102
{ACAD_REACTORS
330
45
102
}
330
45
100
AcDbXrecord
280
     1
  1
区画
  1
区画*
  1
*
  1
*
 70
     0
  1
*
  1
*
  0
XRECORD
  5
20B
102
{ACAD_REACTORS
330
45
102
}
330
45
100
AcDbXrecord
280
     1
  1
躯体
  1
*A21*
  1
*
  1
*
 70
     0
  1
*
  1
*
  0
XRECORD
  5
20C
102
{ACAD_REACTORS
330
45
102
}
330
45
100
AcDbXrecord
280
     1
  1
躯体図
  1
D*
  1
*
  1
*
 70
     0
  1
*
  1
*
  0
XRECORD
  5
20D
102
{ACAD_REACTORS
330
45
102
}
330
45
100
AcDbXrecord
280
     1
  1
空調jv
  1
00i*
  1
*
  1
*
 70
     0
  1
*
  1
*
  0
XRECORD
  5
20E
102
{ACAD_REACTORS
330
45
102
}
330
45
100
AcDbXrecord
280
     1
  1
空調設備図
  1
001*,002*,004*,005*,007*,010*,033*,034*,035*,036*,037*,038*
  1
*
  1
*
 70
     0
  1
*
  1
*
  0
XRECORD
  5
20F
102
{ACAD_REACTORS
330
45
102
}
330
45
100
AcDbXrecord
280
     1
  1
郡川
  1
kijun,kabe,sunpo
  1
*
  1
*
 70
     3
  1
*
  1
*
  0
XRECORD
  5
210
102
{ACAD_REACTORS
330
45
102
}
330
45
100
AcDbXrecord
280
     1
  1
型枠計画図
  1
001*,002*,003*,004*,005*,006*,007*,010*,012*,050*,051*,055*,056*,057*,058*,059*,060*,061*,062*,063*,064*,065*,066*,067*,068*,069*,070*,071*,072*,073*,074*,075*
  1
*
  1
*
 70
     0
  1
*
  1
*
  0
XRECORD
  5
211
102
{ACAD_REACTORS
330
45
102
}
330
45
100
AcDbXrecord
280
     1
  1
計画高平面図
  1
*く*
  1
*
  1
*
 70
     0
  1
*
  1
*
  0
XRECORD
  5
212
102
{ACAD_REACTORS
330
45
102
}
330
45
100
AcDbXrecord
280
     1
  1
計画平面
  1
*け*
  1
*
  1
*
 70
     0
  1
*
  1
*
  0
XRECORD
  5
213
102
{ACAD_REACTORS
330
45
102
}
330
45
100
AcDbXrecord
280
     1
  1
計画平面図
  1
*け*
  1
*
  1
*
 70
     0
  1
*
  1
*
  0
XRECORD
  5
214
102
{ACAD_REACTORS
330
45
102
}
330
45
100
AcDbXrecord
280
     1
  1
劇場ﾌﾟﾗｻﾞ
  1
*え*
  1
*
  1
*
 70
     0
  1
*
  1
*
  0
XRECORD
  5
215
102
{ACAD_REACTORS
330
45
102
}
330
45
100
AcDbXrecord
280
     1
  1
劇場棟
  1
*げ*
  1
*
  1
*
 70
     0
  1
*
  1
*
  0
XRECORD
  5
216
102
{ACAD_REACTORS
330
45
102
}
330
45
100
AcDbXrecord
280
     1
  1
建具
  1
*-建
  1
*
  1
*
 70
     0
  1
*
  1
*
  0
XRECORD
  5
217
102
{ACAD_REACTORS
330
45
102
}
330
45
100
AcDbXrecord
280
     1
  1
建築接地図
  1
A01*
  1
*
  1
*
 70
     0
  1
*
  1
*
  0
XRECORD
  5
218
102
{ACAD_REACTORS
330
45
102
}
330
45
100
AcDbXrecord
280
     1
  1
見上げ
  1
*U
  1
*
  1
*
 70
     0
  1
*
  1
*
  0
XRECORD
  5
219
102
{ACAD_REACTORS
330
45
102
}
330
45
100
AcDbXrecord
280
     1
  1
現在非表示画層
  1
*
  1
*
  1
*
 70
     3
  1
*
  1
*
  0
XRECORD
  5
21A
102
{ACAD_REACTORS
330
45
102
}
330
45
100
AcDbXrecord
280
     1
  1
光天井
  1
*-光
  1
*
  1
*
 70
     0
  1
*
  1
*
  0
XRECORD
  5
21B
102
{ACAD_REACTORS
330
45
102
}
330
45
100
AcDbXrecord
280
     1
  1
公園
  1
K*
  1
*
  1
*
 70
     0
  1
*
  1
*
  0
XRECORD
  5
21C
102
{ACAD_REACTORS
330
45
102
}
330
45
100
AcDbXrecord
280
     1
  1
工事区分図
  1
*じ*
  1
*
  1
*
 70
     0
  1
*
  1
*
  0
XRECORD
  5
21D
102
{ACAD_REACTORS
330
45
102
}
330
45
100
AcDbXrecord
280
     1
  1
工事区分図AB
  1
*α*
  1
*
  1
*
 70
     0
  1
*
  1
*
  0
XRECORD
  5
21E
102
{ACAD_REACTORS
330
45
102
}
330
45
100
AcDbXrecord
280
     1
  1
工事区分図CD
  1
*β*
  1
*
  1
*
 70
     0
  1
*
  1
*
  0
XRECORD
  5
21F
102
{ACAD_REACTORS
330
45
102
}
330
45
100
AcDbXrecord
280
     1
  1
高さ
  1
204-TEXT,東西道路*
  1
*
  1
*
 70
     0
  1
*
  1
*
  0
XRECORD
  5
220
102
{ACAD_REACTORS
330
45
102
}
330
45
100
AcDbXrecord
280
     1
  1
高木植栽平面
  1
*こ*
  1
*
  1
*
 70
     0
  1
*
  1
*
  0
XRECORD
  5
221
102
{ACAD_REACTORS
330
45
102
}
330
45
100
AcDbXrecord
280
     1
  1
高木平面図
  1
*こ*
  1
*
  1
*
 70
     0
  1
*
  1
*
  0
XRECORD
  5
222
102
{ACAD_REACTORS
330
45
102
}
330
45
100
AcDbXrecord
280
     1
  1
座席のみ
  1
*
  1
*
  1
*
 70
     0
  1
*
  1
*
  0
XRECORD
  5
223
102
{ACAD_REACTORS
330
45
102
}
330
45
100
AcDbXrecord
280
     1
  1
作業
  1
100-*,地区*,
  1
*
  1
*
 70
     1
  1
*
  1
*
  0
XRECORD
  5
224
102
{ACAD_REACTORS
330
45
102
}
330
45
100
AcDbXrecord
280
     1
  1
参考
  1
六*
  1
*
  1
*
 70
     0
  1
*
  1
*
  0
XRECORD
  5
225
102
{ACAD_REACTORS
330
45
102
}
330
45
100
AcDbXrecord
280
     1
  1
山止根切計画図
  1
001*,002*,003*,004*,005*,007*,012*,049*,050*,051*,052*,053*,054*,055*,056*,057*,058*,059*,060*,061*,062*,064*,065*,066*,067*,068*,069*,070*,071*,072*,073*,074*,075*
  1
*
  1
*
 70
     0
  1
*
  1
*
  0
XRECORD
  5
226
102
{ACAD_REACTORS
330
45
102
}
330
45
100
AcDbXrecord
280
     1
  1
仕
  1
*_仕
  1
*
  1
*
 70
     0
  1
*
  1
*
  0
XRECORD
  5
227
102
{ACAD_REACTORS
330
45
102
}
330
45
100
AcDbXrecord
280
     1
  1
仕上
  1
*-2
  1
*
  1
*
 70
     0
  1
*
  1
*
  0
XRECORD
  5
228
102
{ACAD_REACTORS
330
45
102
}
330
45
100
AcDbXrecord
280
     1
  1
仕上図
  1
C*
  1
*
  1
*
 70
     0
  1
*
  1
*
  0
XRECORD
  5
229
102
{ACAD_REACTORS
330
45
102
}
330
45
100
AcDbXrecord
280
     1
  1
使用中
  1
使用中
  1
*
  1
*
 70
     1
  1
*
  1
*
  0
XRECORD
  5
22A
102
{ACAD_REACTORS
330
45
102
}
330
45
100
AcDbXrecord
280
     1
  1
施設配置図
  1
*し*
  1
*
  1
*
 70
     0
  1
*
  1
*
  0
XRECORD
  5
22B
102
{ACAD_REACTORS
330
45
102
}
330
45
100
AcDbXrecord
280
     1
  1
施設平面
  1
*し*
  1
*
  1
*
 70
     0
  1
*
  1
*
  0
XRECORD
  5
22C
102
{ACAD_REACTORS
330
45
102
}
330
45
100
AcDbXrecord
280
     1
  1
施設平面図
  1
*し*
  1
*
  1
*
 70
     0
  1
*
  1
*
  0
XRECORD
  5
22D
102
{ACAD_REACTORS
330
45
102
}
330
45
100
AcDbXrecord
280
     1
  1
紫
  1
*
  1
Magenta
  1
*
 70
     0
  1
*
  1
*
  0
XRECORD
  5
22E
102
{ACAD_REACTORS
330
45
102
}
330
45
100
AcDbXrecord
280
     1
  1
床伏図
  1
*U*,20,Z20,Z22,Z23
  1
*
  1
*
 70
     0
  1
*
  1
*
  0
XRECORD
  5
22F
102
{ACAD_REACTORS
330
45
102
}
330
45
100
AcDbXrecord
280
     1
  1
昇降機
  1
T*
  1
*
  1
*
 70
     0
  1
*
  1
*
  0
XRECORD
  5
230
102
{ACAD_REACTORS
330
45
102
}
330
45
100
AcDbXrecord
280
     1
  1
照明
  1
*ら*,*れ*
  1
*
  1
*
 70
     0
  1
*
  1
*
  0
XRECORD
  5
231
102
{ACAD_REACTORS
330
45
102
}
330
45
100
AcDbXrecord
280
     1
  1
照明Ｃ１
  1
*ら*
  1
*
  1
*
 70
     0
  1
*
  1
*
  0
XRECORD
  5
232
102
{ACAD_REACTORS
330
45
102
}
330
45
100
AcDbXrecord
280
     1
  1
照明Ｃ２
  1
*れ*
  1
*
  1
*
 70
     0
  1
*
  1
*
  0
XRECORD
  5
233
102
{ACAD_REACTORS
330
45
102
}
330
45
100
AcDbXrecord
280
     1
  1
照明配置図
  1
*め*
  1
*
  1
*
 70
     0
  1
*
  1
*
  0
XRECORD
  5
234
102
{ACAD_REACTORS
330
45
102
}
330
45
100
AcDbXrecord
280
     1
  1
詳細
  1
詳細*
  1
*
  1
*
 70
     0
  1
*
  1
*
  0
XRECORD
  5
235
102
{ACAD_REACTORS
330
45
102
}
330
45
100
AcDbXrecord
280
     1
  1
詳細図
  1
*u*,*w*,*y*,*x*,*s*,*V*,06
  1
*
  1
*
 70
     0
  1
*
  1
*
  0
XRECORD
  5
236
102
{ACAD_REACTORS
330
45
102
}
330
45
100
AcDbXrecord
280
     1
  1
上階躯体図
  1
KUTAI-Z,SIZE,HOJO,ZATU,HATCH,BR-S,KABE2,KABE,MAJIKIRI,KOBARI-S,KOBARI-R,HARI-S,HARI-R,HASIRA-S,HASIRA-R,MOJI-K2,FL-FUGO,FUGO-W,SUNPO-K2,SUNPO,SUNPO2,SUNPO1,KIJUN2,KIJUN1,KIJUN,
  1
*
  1
*
 70
     0
  1
*
  1
*
  0
XRECORD
  5
237
102
{ACAD_REACTORS
330
45
102
}
330
45
100
AcDbXrecord
280
     1
  1
植栽
  1
*木*
  1
*
  1
*
 70
     0
  1
*
  1
*
  0
XRECORD
  5
238
102
{ACAD_REACTORS
330
45
102
}
330
45
100
AcDbXrecord
280
     1
  1
植栽基盤平面
  1
*ど*
  1
*
  1
*
 70
     0
  1
*
  1
*
  0
XRECORD
  5
239
102
{ACAD_REACTORS
330
45
102
}
330
45
100
AcDbXrecord
280
     1
  1
植栽現況
  1
*植*
  1
*
  1
*
 70
     0
  1
*
  1
*
  0
XRECORD
  5
23A
102
{ACAD_REACTORS
330
45
102
}
330
45
100
AcDbXrecord
280
     1
  1
植栽高木AB
  1
*λ*
  1
*
  1
*
 70
     0
  1
*
  1
*
  0
XRECORD
  5
23B
102
{ACAD_REACTORS
330
45
102
}
330
45
100
AcDbXrecord
280
     1
  1
植栽高木CD
  1
*ｑ*
  1
*
  1
*
 70
     0
  1
*
  1
*
  0
XRECORD
  5
23C
102
{ACAD_REACTORS
330
45
102
}
330
45
100
AcDbXrecord
280
     1
  1
植栽低木AB
  1
*γ*
  1
*
  1
*
 70
     0
  1
*
  1
*
  0
XRECORD
  5
23D
102
{ACAD_REACTORS
330
45
102
}
330
45
100
AcDbXrecord
280
     1
  1
植栽低木ＣＤ
  1
*Θ*
  1
*
  1
*
 70
     0
  1
*
  1
*
  0
XRECORD
  5
23E
102
{ACAD_REACTORS
330
45
102
}
330
45
100
AcDbXrecord
280
     1
  1
色番号8
  1
*
  1
8
  1
*
 70
     0
  1
*
  1
*
  0
XRECORD
  5
23F
102
{ACAD_REACTORS
330
45
102
}
330
45
100
AcDbXrecord
280
     1
  1
申請用
  1
*あ*,*き*,*グ*,*み*,*オ*,*ピ*,*92*
  1
*
  1
*
 70
     0
  1
*
  1
*
  0
XRECORD
  5
240
102
{ACAD_REACTORS
330
45
102
}
330
45
100
AcDbXrecord
280
     1
  1
芯
  1
*芯
  1
*
  1
*
 70
     0
  1
*
  1
*
  0
XRECORD
  5
241
102
{ACAD_REACTORS
330
45
102
}
330
45
100
AcDbXrecord
280
     1
  1
芯関係
  1
001*,002*,032*
  1
*
  1
*
 70
     0
  1
*
  1
*
  0
XRECORD
  5
242
102
{ACAD_REACTORS
330
45
102
}
330
45
100
AcDbXrecord
280
     1
  1
水
  1
*
  1
cyan
  1
*
 70
     0
  1
*
  1
*
  0
XRECORD
  5
243
102
{ACAD_REACTORS
330
45
102
}
330
45
100
AcDbXrecord
280
     1
  1
水色
  1
*
  1
Cyan
  1
*
 70
     0
  1
*
  1
*
  0
XRECORD
  5
244
102
{ACAD_REACTORS
330
45
102
}
330
45
100
AcDbXrecord
280
     1
  1
寸法
  1
*寸法
  1
*
  1
*
 70
     0
  1
*
  1
*
  0
XRECORD
  5
245
102
{ACAD_REACTORS
330
45
102
}
330
45
100
AcDbXrecord
280
     1
  1
製作
  1
B*
  1
*
  1
*
 70
     0
  1
*
  1
*
  0
XRECORD
  5
246
102
{ACAD_REACTORS
330
45
102
}
330
45
100
AcDbXrecord
280
     1
  1
製作-躯体
  1
BS*
  1
*
  1
*
 70
     0
  1
*
  1
*
  0
XRECORD
  5
247
102
{ACAD_REACTORS
330
45
102
}
330
45
100
AcDbXrecord
280
     1
  1
製作-建築
  1
BD*
  1
*
  1
*
 70
     0
  1
*
  1
*
  0
XRECORD
  5
248
102
{ACAD_REACTORS
330
45
102
}
330
45
100
AcDbXrecord
280
     1
  1
製作-昇降機
  1
BT*
  1
*
  1
*
 70
     0
  1
*
  1
*
  0
XRECORD
  5
249
102
{ACAD_REACTORS
330
45
102
}
330
45
100
AcDbXrecord
280
     1
  1
青
  1
*
  1
blue
  1
*
 70
     0
  1
*
  1
*
  0
XRECORD
  5
24A
102
{ACAD_REACTORS
330
45
102
}
330
45
100
AcDbXrecord
280
     1
  1
設備
  1
E*,P*,M*
  1
*
  1
*
 70
     0
  1
*
  1
*
  0
XRECORD
  5
24B
102
{ACAD_REACTORS
330
45
102
}
330
45
100
AcDbXrecord
280
     1
  1
設備プロット
  1
02*
  1
*
  1
*
 70
     0
  1
*
  1
*
  0
XRECORD
  5
24C
102
{ACAD_REACTORS
330
45
102
}
330
45
100
AcDbXrecord
280
     1
  1
全階平面図
  1
*
  1
*
  1
*
 70
     0
  1
*
  1
*
  0
XRECORD
  5
24D
102
{ACAD_REACTORS
330
45
102
}
330
45
100
AcDbXrecord
280
     1
  1
総合仮設図
  1
001*,002*,003*,004*,005*,007*,012*,015*,016*,017*,018*,019*,020*,021*,049*,050*,051*,052*,053*,054*,055*,056*,057*,058*,059*,060*,061*,062*,063*,064*,065*,066*,067*,068*,069*,070*,071*,072*,073*,074*,075*
  1
*
  1
*
 70
     0
  1
*
  1
*
  0
XRECORD
  5
24E
102
{ACAD_REACTORS
330
45
102
}
330
45
100
AcDbXrecord
280
     1
  1
総合図
  1
*z*,*u*,*w*,*y*,*x*,*V*,06
  1
*
  1
*
 70
     0
  1
*
  1
*
  0
XRECORD
  5
24F
102
{ACAD_REACTORS
330
45
102
}
330
45
100
AcDbXrecord
280
     1
  1
足場計画図
  1
001*,002*,003*,004*,005*,007*,012*,015*,049*,050*,051*,055*,056*,057*,058*,059*,060*,061*,062*,064*,065*,066*,067*,068*,069*,070*,071*,072*,073*,074*,075*
  1
*
  1
*
 70
     0
  1
*
  1
*
  0
XRECORD
  5
250
102
{ACAD_REACTORS
330
45
102
}
330
45
100
AcDbXrecord
280
     1
  1
地下埋設
  1
*ち*
  1
*
  1
*
 70
     0
  1
*
  1
*
  0
XRECORD
  5
251
102
{ACAD_REACTORS
330
45
102
}
330
45
100
AcDbXrecord
280
     1
  1
中野
  1
中野*
  1
*
  1
*
 70
     0
  1
*
  1
*
  0
XRECORD
  5
252
102
{ACAD_REACTORS
330
45
102
}
330
45
100
AcDbXrecord
280
     1
  1
低木植栽平面
  1
*て*
  1
*
  1
*
 70
     0
  1
*
  1
*
  0
XRECORD
  5
253
102
{ACAD_REACTORS
330
45
102
}
330
45
100
AcDbXrecord
280
     1
  1
低木平面図
  1
*て*
  1
*
  1
*
 70
     0
  1
*
  1
*
  0
XRECORD
  5
254
102
{ACAD_REACTORS
330
45
102
}
330
45
100
AcDbXrecord
280
     1
  1
鉄骨
  1
*-1
  1
*
  1
*
 70
     0
  1
*
  1
*
  0
XRECORD
  5
255
102
{ACAD_REACTORS
330
45
102
}
330
45
100
AcDbXrecord
280
     1
  1
鉄骨建方計画図
  1
001*,002*,003*,004*,005*,007*,012*,013*,049*,050*,051*,052*,053*,054*,055*,056*,057*,058*,059*,060*,061*,062*,063*,064*,065*,066*,067*,068*,069*,070*,071*,072*,073*,074*,075*
  1
*
  1
*
 70
     0
  1
*
  1
*
  0
XRECORD
  5
256
102
{ACAD_REACTORS
330
45
102
}
330
45
100
AcDbXrecord
280
     1
  1
天井インサート図
  1
001*,002*,004*,010*,022*,023*,024*,025*,026*,027*,028*,029*,037*,042*
  1
*
  1
*
 70
     0
  1
*
  1
*
  0
XRECORD
  5
257
102
{ACAD_REACTORS
330
45
102
}
330
45
100
AcDbXrecord
280
     1
  1
天井総合図
  1
001*,002*,004*,005*,007*,010*,022*,023*,024*,025*,026*,027*,028*,029*,030*,031*,033*,035*,036*,037*,039*,041*,042*,044*,046*,047*
  1
*
  1
*
 70
     0
  1
*
  1
*
  0
XRECORD
  5
258
102
{ACAD_REACTORS
330
45
102
}
330
45
100
AcDbXrecord
280
     1
  1
天井伏図
  1
0,00*,01*,03*,05*,1*,2*,3*,4*,7*,9*
  1
*
  1
*
 70
     0
  1
*
  1
*
  0
XRECORD
  5
259
102
{ACAD_REACTORS
330
45
102
}
330
45
100
AcDbXrecord
280
     1
  1
天伏
  1
*05
  1
*
  1
*
 70
     0
  1
*
  1
*
  0
XRECORD
  5
25A
102
{ACAD_REACTORS
330
45
102
}
330
45
100
AcDbXrecord
280
     1
  1
電気設備図
  1
001*,002*,004*,005*,007*,010*,030*,031*,044*,045*,046*,047*,048*
  1
*
  1
*
 70
     0
  1
*
  1
*
  0
XRECORD
  5
25B
102
{ACAD_REACTORS
330
45
102
}
330
45
100
AcDbXrecord
280
     1
  1
土壌改良
  1
*ど*
  1
*
  1
*
 70
     0
  1
*
  1
*
  0
XRECORD
  5
25C
102
{ACAD_REACTORS
330
45
102
}
330
45
100
AcDbXrecord
280
     1
  1
土木計画平面図
  1
*^ *,*B*,*0*,*排*,*法*,*ﾊ*,*b*
  1
*
  1
*
 70
     0
  1
*
  1
*
  0
XRECORD
  5
25D
102
{ACAD_REACTORS
330
45
102
}
330
45
100
AcDbXrecord
280
     1
  1
道路
  1
R*
  1
*
  1
*
 70
     0
  1
*
  1
*
  0
XRECORD
  5
25E
102
{ACAD_REACTORS
330
45
102
}
330
45
100
AcDbXrecord
280
     1
  1
道路関係図
  1
001*,002*,003*,004*,007*,012*,015*,016*,017*,018*,019*,020*,021*,049*,050*,051*,052*,053*,054*,055*,056*,057*,058*,059*,060*,061*,062*,063*,064*,065*,066*,067*,068*,069*,070*,071*,072*,073*,074*,075*
  1
*
  1
*
 70
     0
  1
*
  1
*
  0
XRECORD
  5
25F
102
{ACAD_REACTORS
330
45
102
}
330
45
100
AcDbXrecord
280
     1
  1
排水
  1
*は*
  1
*
  1
*
 70
     0
  1
*
  1
*
  0
XRECORD
  5
260
102
{ACAD_REACTORS
330
45
102
}
330
45
100
AcDbXrecord
280
     1
  1
排水設備平面図
  1
*は*
  1
*
  1
*
 70
     0
  1
*
  1
*
  0
XRECORD
  5
261
102
{ACAD_REACTORS
330
45
102
}
330
45
100
AcDbXrecord
280
     1
  1
排水平面
  1
*は*
  1
*
  1
*
 70
     0
  1
*
  1
*
  0
XRECORD
  5
262
102
{ACAD_REACTORS
330
45
102
}
330
45
100
AcDbXrecord
280
     1
  1
配管
  1
PIPE*
  1
*
  1
*
 70
     0
  1
*
  1
*
  0
XRECORD
  5
263
102
{ACAD_REACTORS
330
45
102
}
330
45
100
AcDbXrecord
280
     1
  1
非表示
  1
*
  1
*
  1
*
 70
     3
  1
*
  1
*
  0
XRECORD
  5
264
102
{ACAD_REACTORS
330
45
102
}
330
45
100
AcDbXrecord
280
     1
  1
非表示ﾚｲﾔｰ
  1
*-z
  1
*
  1
*
 70
     0
  1
*
  1
*
  0
XRECORD
  5
265
102
{ACAD_REACTORS
330
45
102
}
330
45
100
AcDbXrecord
280
     1
  1
表示
  1
*
  1
*
  1
*
 70
     1
  1
*
  1
*
  0
XRECORD
  5
266
102
{ACAD_REACTORS
330
45
102
}
330
45
100
AcDbXrecord
280
     1
  1
表示・非表示
  1
*
  1
*
  1
*
 70
     1
  1
*
  1
*
  0
XRECORD
  5
267
102
{ACAD_REACTORS
330
45
102
}
330
45
100
AcDbXrecord
280
     1
  1
表示2
  1
*
  1
*
  1
*
 70
   257
  1
*
  1
*
  0
XRECORD
  5
268
102
{ACAD_REACTORS
330
45
102
}
330
45
100
AcDbXrecord
280
     1
  1
分割枠
  1
枠*
  1
*
  1
*
 70
     0
  1
*
  1
*
  0
XRECORD
  5
269
102
{ACAD_REACTORS
330
45
102
}
330
45
100
AcDbXrecord
280
     1
  1
平面詳細図
  1
SUNPO-S,SIZE,HOJO,ZATU,HATCH,HWAKU,HMOJI,WARITUKE-T,WARITUKE-Y,WARITUKE-K,TATEGU1,TATEGU,BR-S,MAJIKIRI,KABE2,SIAGE,KABE1,KABE,KOBARI-S,KOBARI-R,HARI-S,HARI-R,HASIRA-S,HASIRA-R,MOJI,SHITUMEI,LABEL,FL-FUGO,FUGO-W,SUNPO,SUNPO2,SUNPO1,KIJUN2,KIJUN1,KIJUN
  1
*
  1
*
 70
     0
  1
*
  1
*
  0
XRECORD
  5
26A
102
{ACAD_REACTORS
330
45
102
}
330
45
100
AcDbXrecord
280
     1
  1
平面図
  1
*HMOJI,*HOJO2,*HOJO3,*SINSEI,*FUGOT
  1
*
  1
*
 70
     0
  1
*
  1
*
  0
XRECORD
  5
26B
102
{ACAD_REACTORS
330
45
102
}
330
45
100
AcDbXrecord
280
     1
  1
平面総合図
  1
001*,002*,004*,010*,013*,014*,015*,016*,017*,018*,019*,020*,021*,030*,031*,034*,040*,045*
  1
*
  1
*
 70
     0
  1
*
  1
*
  0
XRECORD
  5
26C
102
{ACAD_REACTORS
330
45
102
}
330
45
100
AcDbXrecord
280
     1
  1
変更分
  1
六*
  1
*
  1
*
 70
     0
  1
*
  1
*
  0
XRECORD
  5
26D
102
{ACAD_REACTORS
330
45
102
}
330
45
100
AcDbXrecord
280
     1
  1
舗装平面
  1
*ほ*
  1
*
  1
*
 70
     0
  1
*
  1
*
  0
XRECORD
  5
26E
102
{ACAD_REACTORS
330
45
102
}
330
45
100
AcDbXrecord
280
     1
  1
舗装平面C1
  1
*α*
  1
*
  1
*
 70
     0
  1
*
  1
*
  0
XRECORD
  5
26F
102
{ACAD_REACTORS
330
45
102
}
330
45
100
AcDbXrecord
280
     1
  1
舗装平面C2
  1
*β*
  1
*
  1
*
 70
     0
  1
*
  1
*
  0
XRECORD
  5
270
102
{ACAD_REACTORS
330
45
102
}
330
45
100
AcDbXrecord
280
     1
  1
舗装平面図
  1
*ほ*
  1
*
  1
*
 70
     0
  1
*
  1
*
  0
XRECORD
  5
271
102
{ACAD_REACTORS
330
45
102
}
330
45
100
AcDbXrecord
280
     1
  1
法規チェック－区画
  1
*92
  1
*
  1
*
 70
     0
  1
*
  1
*
  0
XRECORD
  5
272
102
{ACAD_REACTORS
330
45
102
}
330
45
100
AcDbXrecord
280
     1
  1
法規チェック－範囲
  1
*0
  1
*
  1
*
 70
     0
  1
*
  1
*
  0
XRECORD
  5
273
102
{ACAD_REACTORS
330
45
102
}
330
45
100
AcDbXrecord
280
     1
  1
鳳文字入力
  1
*
  1
*
  1
*
 70
     0
  1
*
  1
*
  0
XRECORD
  5
274
102
{ACAD_REACTORS
330
45
102
}
330
45
100
AcDbXrecord
280
     1
  1
防災
  1
B*
  1
*
  1
*
 70
   768
  1
*
  1
*
  0
XRECORD
  5
275
102
{ACAD_REACTORS
330
45
102
}
330
45
100
AcDbXrecord
280
     1
  1
名称
  1
*名称
  1
*
  1
*
 70
     0
  1
*
  1
*
  0
XRECORD
  5
276
102
{ACAD_REACTORS
330
45
102
}
330
45
100
AcDbXrecord
280
     1
  1
面積
  1
*
  1
*
  1
*
 70
     3
  1
*
  1
*
  0
XRECORD
  5
277
102
{ACAD_REACTORS
330
45
102
}
330
45
100
AcDbXrecord
280
     1
  1
擁壁平面図
  1
*よ*
  1
*
  1
*
 70
     0
  1
*
  1
*
  0
XRECORD
  5
278
102
{ACAD_REACTORS
330
45
102
}
330
45
100
AcDbXrecord
280
     1
  1
用途色塗
  1
*1-*
  1
*
  1
*
 70
     0
  1
*
  1
*
  0
XRECORD
  5
279
102
{ACAD_REACTORS
330
45
102
}
330
45
100
AcDbXrecord
280
     1
  1
立面図
  1
*HOJO2
  1
*
  1
*
 70
     0
  1
*
  1
*
  0
XRECORD
  5
27A
102
{ACAD_REACTORS
330
45
102
}
330
45
100
AcDbXrecord
280
     1
  1
梁
  1
0,08*,17*,梁*
  1
*
  1
*
 70
     0
  1
*
  1
*
  0
XRECORD
  5
27B
102
{ACAD_REACTORS
330
45
102
}
330
45
100
AcDbXrecord
280
     1
  1
緑
  1
*
  1
Green
  1
*
 70
     0
  1
*
  1
*
  0
ENDSEC
  0
EOF
